MEGA SALE -50% FORZA HORIZON 4 ULTIMATE+ВСЕ DLC+ОНЛАЙН всего за 599р. 299 руб. (супер цена). Внимание количество ограничено!!!

iTunes

1+1

iTunes

мы

iTunes

1

iTunes

Чернобыль

iTunes

Ральф против интернета

Лицензия

ПШазам

Лицензия

Игра престолов

Лицензия

30
pack

ВАЖНО

!!Акция!!

Alien_RageХит недели

RePack

Resident Evil 21

ИГРА 18+

pack

RePack

Metro:Exodus

!!Акция!!

Alien_Rage

RePack

fifa19

RePack

Assassins Creed: Odyssey

RePack

NEED FOR SPEED™ PAYBACK

3 сезон

9 сезон

Бесстыжие 9 сезон

Все сериалы

все сериалы на PB.wtf

RePack

FAR CRY 5
Ребята, катастрофически не хватает 7730р. для оплаты серверов за АВГУСТ (всвязи с блокировками трафик упал в 3 раза), 1-2р., выручайте.
  

Болотная икра / Bayou Caviar (Кьюба Гудинг мл.) [2018, Триллер, драма, криминал, детектив, BDRip-AVC] MVO [HDRezka Studio] piratbit.org

Болотная икра через торрент piratbit.org

Раздают: 6 [ 326 KB/s ]
Размер: 1.89 GB | Добавлен: 8 д. назад | Торрент скачан:62 раза
Скачать  

10-10-2018 10:06 Болотная икра Скачать торрент  

Болотная икра / Bayou Caviar«A Man's Desires Never Tasted So Sweet...»
Год выпуска: 2018
Страна: США
Жанр: Триллер, драма, криминал, детектив
Продолжительность: 01:51:03
Перевод: Профессиональный (многоголосый) | HDRezka Studio
Субтитры: Русские (полные), Английские (полные)

Режиссер: Кьюба Гудинг мл.

rating

В ролях: Кьюба Гудинг мл., Фамке Янссен, Ричард Дрейфусс, Лия Мари Джонсон, Грегг Белло, Кэтрин МакФи, Кен Лернер, Сэм Такур, Джеймс Моусес Блэк, Алекс Ковалев

Описание: Русский гангстер предлагает бывшему боксёру Родни помочь ему разобраться с приёмным сыном сообщника. Родни всего лишь требуется использовать видео, сделанное фотографом Ником. Но всё идет наперекосяк, и Родни оказывается в опасном мире секса, насилия и мести.

Качество: BDRip-AVC
Формат: MKV

Видео: 1024x428 (2.40:1), 23,976 fps, x264 ~1 796 kbps avg, 0.171 bit/pixel
Аудио#1: 48 kHz, AC3 Dolby Digital, 2/0 (L,R) ch, ~192.00 kbps avg | RUS (HDRezka Studio)
Аудио#2: 48 kHz, AC3 Dolby Digital, 3/2 (L,C,R,l,r) + LFE ch, ~448.00 kbps avg | ENG
скриншот  скриншот  скриншот  скриншот  скриншот  

Общее
Уникальный идентификатор : 328591088469736705247817395318396461694 (0xF7345777F6F6EABE428EA9D69A32A27E)
Полное имя : F:OlLanDGroupBayou.Caviar.2018.BDRip(AVC).OlLanDGroup.mkv
Формат : Matroska
Версия формата : Version 4 / Version 2
Размер файла : 1,89 Гбайт
Продолжительность : 1 ч. 51 м.
Общий поток : 2436 Кбит/сек
Название фильма : Bayou.Caviar.2018 #TorpedoUK#
Дата кодирования : UTC 2019-09-11 09:25:46
Программа кодирования : mkvmerge v29.0.0 ('Like It Or Not') 64-bit
Библиотека кодирования : libebml v1.3.6 + libmatroska v1.4.9

Видео
Идентификатор : 1
Формат : AVC
Формат/Информация : Advanced Video Codec
Профиль формата : High@L4.1
Параметр CABAC формата : Да
Параметр ReFrames формата : 10 кадров
Идентификатор кодека : V_MPEG4/ISO/AVC
Продолжительность : 1 ч. 51 м.
Битрейт : 1796 Кбит/сек
Ширина : 1024 пикселя
Высота : 428 пикселей
Соотношение сторон : 2,40:1
Режим частоты кадров : Постоянный
Частота кадров : 23,976 (24000/1001) кадра/сек
Цветовое пространство : YUV
Субдискретизация насыщенности : 4:2:0
Битовая глубина : 8 бит
Тип развёртки : Прогрессивная
Бит/(Пиксели*Кадры) : 0.171
Размер потока : 1,39 Гбайт (74%)
Библиотека кодирования : x264 core 146 r2538 121396c
Настройки программы : cabac=1 / ref=10 / deblock=1:-3:-3 / analyse=0x3:0x113 / me=umh / subme=11 / psy=1 / psy_rd=0.99:0.04 / mixed_ref=1 / me_range=48 / chroma_me=1 / trellis=2 / 8x8dct=1 / cqm=0 / deadzone=21,11 / fast_pskip=1 / chroma_qp_offset=-6 / threads=6 / lookahead_threads=1 / sliced_threads=0 / nr=0 / decimate=1 / interlaced=0 / bluray_compat=0 / constrained_intra=0 / bframes=11 / b_pyramid=2 / b_adapt=2 / b_bias=0 / direct=3 / weightb=1 / open_gop=0 / weightp=2 / keyint=240 / keyint_min=23 / scenecut=40 / intra_refresh=0 / rc_lookahead=40 / rc=2pass / mbtree=0 / bitrate=1796 / ratetol=1.0 / qcomp=0.60 / qpmin=0 / qpmax=69 / qpstep=4 / cplxblur=20.0 / qblur=0.5 / vbv_maxrate=50000 / vbv_bufsize=62500 / nal_hrd=none / filler=0 / ip_ratio=1.40 / pb_ratio=1.30 / aq=1:1.00
Язык : English
Default : Да
Forced : Нет

Аудио #1
Идентификатор : 2
Формат : AC-3
Формат/Информация : Audio Coding 3
Расширение режима : CM (complete main)
Параметр Endianness формата : Big
Идентификатор кодека : A_AC3
Продолжительность : 1 ч. 51 м.
Вид битрейта : Постоянный
Битрейт : 192 Кбит/сек
Каналы : 2 канала
Расположение каналов : Front: L R
Частота : 48,0 КГц
Частота кадров : 31,250 кадров/сек (1536 spf)
Битовая глубина : 16 бит
Метод сжатия : С потерями
Размер потока : 153 Мбайт (8%)
Заголовок : MVO [HDrezka Studio]
Язык : Russian
Default : Да
Forced : Нет

Аудио #2
Идентификатор : 3
Формат : AC-3
Формат/Информация : Audio Coding 3
Расширение режима : CM (complete main)
Параметр Endianness формата : Big
Идентификатор кодека : A_AC3
Продолжительность : 1 ч. 51 м.
Вид битрейта : Постоянный
Битрейт : 448 Кбит/сек
Каналы : 6 каналов
Расположение каналов : Front: L C R, Side: L R, LFE
Частота : 48,0 КГц
Частота кадров : 31,250 кадров/сек (1536 spf)
Битовая глубина : 16 бит
Метод сжатия : С потерями
Размер потока : 356 Мбайт (18%)
Заголовок : [Original]
Язык : English
Default : Нет
Forced : Нет

Текст #1
Идентификатор : 4
Формат : UTF-8
Идентификатор кодека : S_TEXT/UTF8
Идентификатор кодека/Информация : UTF-8 Plain Text
Продолжительность : 1 ч. 46 м.
Битрейт : 65 бит/сек
Count of elements : 1062
Размер потока : 50,7 Кбайт (0%)
Заголовок : Full
Язык : Russian
Default : Нет
Forced : Нет

Текст #2
Идентификатор : 5
Формат : UTF-8
Идентификатор кодека : S_TEXT/UTF8
Идентификатор кодека/Информация : UTF-8 Plain Text
Продолжительность : 1 ч. 46 м.
Битрейт : 53 бит/сек
Count of elements : 1232
Размер потока : 41,3 Кбайт (0%)
Заголовок : Full
Язык : English
Default : Нет
Forced : Нет

Меню
00:00:00.000 : :Capítulo 01
00:06:22.549 : :Capítulo 02
00:13:57.670 : :Capítulo 03
00:21:27.828 : :Capítulo 04
00:33:10.113 : :Capítulo 05
00:43:36.531 : :Capítulo 06
00:53:10.396 : :Capítulo 07
01:03:14.416 : :Capítulo 08
01:13:20.771 : :Capítulo 09
01:23:11.361 : :Capítulo 10
01:33:02.368 : :Capítulo 11
01:43:02.760 : :Capítulo 12
piratbit.org



Скачать Болотная икра через торрент https://i87.fastpic.ru/big/2019/0911/5a/837bf67f6cbf4badffb9080378de955a.jpg Скачать фильм Болотная икра через торрент бесплантно в хорошем качестве Описание: Русский гангстер предлагает бывшему боксёру Родни помочь ему разобраться с приёмным сыном сообщника. Родни всего лишь требуется ... 10 10 4
Торрент: Зарегистрирован [2019-09-11 10:07] · скачан: 62 раз
Статус: T временная
Размер: 1.89 GB
Как cкачать? Как скачать Болотная икра через торрент | qTorrent

% Раздел Тема Автор DL S | L
T Фильмы (мультфильмы) cо спонсором показа (Новинки AVI/MKV) [ 4.59 GB ] Болотная икра / Bayou Caviar [2018 WEB-DL 1080p] DUB [Line] bober100 Скачать
1 | 0
T Фильмы (мультфильмы) cо спонсором показа (Новинки AVI/MKV) [ 4.12 GB ] Болотная икра / Bayou Caviar [2018 WEB-DL 720p] DUB [Line] bober100 Скачать
1 | 1
T Фильмы (мультфильмы) cо спонсором показа (Новинки AVI/MKV) [ 1.46 GB ] Болотная икра / Bayou Caviar [2018 WEB-DLRip] DUB [Line] bober100 Скачать
5 | 0
T Фильмы (мультфильмы) cо спонсором показа (Новинки AVI/MKV) [ 4.06 GB ] Болотная икра / Bayou Caviar [2018 WEB-DL 720p] MVO ["Синема УС"] bober100 Скачать
1 | 0


>> Регистрируемся здесь <<






Отзывы и комментарии о схеме читаем и пишем здесь: ---> Отзывы и комментарии о схеме

Новые благодарочки в телеграм довольных пользователей:
скриншот   скриншот   скриншот   скриншот   скриншот
    Дорогой пользователь! Огромная просьба, поблагодарите релизера, оцените раздачу и оставьте свои комментарий, если Вы скачали Болотная икра через торрент бесплатно! Внесите свою лепту в развитие PiratBit!
    Комментировать посты могут только пользователи прошедшие не сложную регистрацию
    Показать сообщения:    

    Болотная икра через торрент
    Скачать бесплатно Болотная икра
    Болотная икра скачать торрент
    Болотная икра смотреть онлайн
    Cкачать фильм Болотная икра бесплатно
    Болотная икра скачать торрент в хорошем качестве
    Болотная икра смотреть онлайн бесплатно в хорошем качестве


    Вы не можете начинать темы
    Вы не можете отвечать на сообщения
    Вы не можете редактировать свои сообщения
    Вы не можете удалять свои сообщения
    Вы не можете голосовать в опросах
    Вы не можете прикреплять файлы к сообщениям
    Вы можете скачивать файлы