Достать ножи: Стеклянная луковица

MVO

Добыча

Дубляж

Уэнсдэй

1 сезон

Тор

Дубляж

13 клиническая

1 сезон

Жестокая ночь

MVO

Одни из нас

1 сезон

Deluxe

pack

Рекомендуем

30

Пиратка

ВАЖНО

ВАЖНО

Ghostwire

Пиратка

jed

RePack

nioh2

RePack

RDR2

RePack

NEED FOR SPEED™ PAYBACK

RePack

скачать торрент

Кинопоиск HD

Острые козырьки 6 сезон

6 сезон

FAR CRY 6

RePack

скачать торрент

Лицензия

скачать торрент

MVO

1

1 сезон

скачать торрент

1 сезон

скачать торрент

Лицензия

  

Легенда восьми самураев / Satomi hakken-den (Киндзи Фукасаку) [1983, Приключения, фэнтези, боевик, драма, UHD BDRemux 2160p] AVO [Кузнецов]

Легенда восьми самураев через торрент piratbit.org

Размер: 56.87 GB | Добавлен: 4 года 3 мес. назад | Торрент скачан:5 раз
Смотреть онлайн | Скачать | Поддержите нас   

12-10-2018 15:39 Легенда восьми самураев Скачать торрент  

Легенда восьми самураев / Satomi hakken-den
Год выпуска: 1983
Страна: Япония
Жанр: Приключения, фэнтези, боевик, драма
Продолжительность: 02:16:15
Перевод: Авторский (одноголосый) | Кузнецов
Субтитры: Японские

Режиссер: Киндзи Фукасаку

rating

В ролях:

Хироко Якусимару, Хироюки Санада, Сонни Чиба, Эцуко Шихоми, Юки Мегуро, Мари Нацуки, Масаки Кюмото, Нана Окада, Кендзи Охба, Нагаре Хагивара, Сейдзо Фукумото, Кейко Мацузака, Микио Нарита, Тадаши Нарусе, Минори Терада, Тайджи Тонояма

Описание:

Клан мертвых хочет отомстить клану Сатоми. Были убиты шестеро главных, но седьмая, принцесса Сидзу, сбежала, и теперь за ней начинается охота. Принцесса так просто сдаваться не собирается, ведь только она вместе с восьмеркой избранных самураев может уничтожить клан противника.

Качество: UHD BDRemux 2160p
Формат: MKV

Видео: HEVC HDR, 52.6 Mбит/с, 3840x2160, 23.976 кадр/с
Аудио#1: Русский (AC3, 2 ch, 192 Кбит/с) / Авторский (Кузнецов)
Аудио#2: Японский (PCM, 6 ch, 6912 Кбит/с)
скриншот  скриншот  скриншот  скриншот  скриншот  

General
Unique ID : 294436471164127653959544754056693510174 (0xDD8266D2C306FB77983F4BF1D3E7701E)
Complete name : C:UsersPublicVideosSample VideosFilmySatomi.hakken.den.1983.BDRemux.2160p.HDR.MediaClub.mkv
Format : Matroska
Format version : Version 4
File size : 56.9 GiB
Duration : 2 h 16 min
Overall bit rate : 59.8 Mb/s
Movie name : 里見八犬伝
Encoded date : UTC 2018-10-12 13:12:22
Writing application : mkvmerge v25.0.0 ('Prog Noir') 64-bit
Writing library : libebml v1.3.6 + libmatroska v1.4.9
Cover : Yes
Attachments : cover.jpg

Video
ID : 1
Format : HEVC
Format/Info : High Efficiency Video Coding
Commercial name : HDR10
Format profile : Main 10@L5.1@High
Codec ID : V_MPEGH/ISO/HEVC
Duration : 2 h 16 min
Bit rate : 52.6 Mb/s
Width : 3 840 pixels
Height : 2 160 pixels
Display aspect ratio : 16:9
Frame rate mode : Constant
Frame rate : 23.976 (24000/1001) FPS
Color space : YUV
Chroma subsampling : 4:2:0 (Type 2)
Bit depth : 10 bits
Bits/(Pixel*Frame) : 0.265
Stream size : 50.1 GiB (88%)
Title : BDRemux.2160p.HDR by Silverok
Default : No
Forced : No
Color range : Limited
Color primaries : BT.2020
Transfer characteristics : PQ
Matrix coefficients : BT.2020 non-constant
Mastering display color primaries : BT.2020
Mastering display luminance : min: 0.0010 cd/m2, max: 1000 cd/m2
Maximum Content Light Level : 996 cd/m2
Maximum Frame-Average Light Level : 533 cd/m2

Audio #1
ID : 2
Format : AC-3
Format/Info : Audio Coding 3
Commercial name : Dolby Digital
Codec ID : A_AC3
Duration : 2 h 16 min
Bit rate mode : Constant
Bit rate : 192 kb/s
Channel(s) : 2 channels
Channel layout : L R
Sampling rate : 48.0 kHz
Frame rate : 31.250 FPS (1536 SPF)
Bit depth : 16 bits
Compression mode : Lossy
Stream size : 187 MiB (0%)
Title : Авторский одноголосый (Кузнецов)
Language : Russian
Service kind : Complete Main
Default : Yes
Forced : No

Audio #2
ID : 3
Format : PCM
Format settings : Little / Signed
Codec ID : A_PCM/INT/LIT
Duration : 2 h 16 min
Bit rate mode : Constant
Bit rate : 6 912 kb/s
Channel(s) : 6 channels
Sampling rate : 48.0 kHz
Frame rate : 32.000 FPS (1500 SPF)
Bit depth : 24 bits
Stream size : 6.58 GiB (12%)
Language : Japanese
Default : No
Forced : No

Text
ID : 4
Format : PGS
Muxing mode : zlib
Codec ID : S_HDMV/PGS
Codec ID/Info : Picture based subtitle format used on BDs/HD-DVDs
Duration : 2 h 16 min
Bit rate : 107 kb/s
Count of elements : 6540
Stream size : 105 MiB (0%)
Language : Japanese
Default : No
Forced : No

Menu
00:00:00.000 : ja:Chapter 01
00:07:06.008 : ja:Chapter 02
00:14:26.282 : ja:Chapter 03
00:20:58.173 : ja:Chapter 04
00:27:27.520 : ja:Chapter 05
00:38:58.961 : ja:Chapter 06
00:51:53.193 : ja:Chapter 07
00:55:25.322 : ja:Chapter 08
00:59:06.960 : ja:Chapter 09
01:07:02.101 : ja:Chapter 10
01:19:24.301 : ja:Chapter 11
01:30:08.903 : ja:Chapter 12
01:36:56.268 : ja:Chapter 13
01:45:51.720 : ja:Chapter 14
02:05:50.751 : ja:Chapter 15
02:16:14.166 : ja:Chapter 16




Скачать Легенда восьми самураев через торрент http://img11.lostpic.net/2018/10/12/d1ebbd88798c503039330fb10ae8ad0e.jpg Скачать, смотреть онлайн Легенда восьми самураев бесплантно в хорошем качестве Описание: Клан мертвых хочет отомстить клану Сатоми. Были убиты шестеро главных, но седьмая, принцесса Сидзу, сбежала, и теперь за ней ... 10 10 2
Торрент: Зарегистрирован [2018-10-12 15:39] · скачан: 5 раз
Статус: √ проверено
Размер: 56.87 GB
Как cкачать? Как скачать Легенда восьми самураев через торрент | UTorrent

% Раздел Тема Автор DL S | L
Азиатские фильмы [ 1.97 GB ] Легенда восьми самураев / Satomi hakken-den | | DVDRip, VO lexxus350 Скачать
1 | 0

28-11-2019 20:33  


Отключить вcю реклaмy на сайте, в т.ч. и в плеере онлайн просмотра!

    Дорогой пользователь! Огромная просьба, поблагодарите релизера, оцените раздачу и оставьте свои комментарий, если Вы скачали Легенда восьми самураев через торрент бесплатно!!
    Комментировать посты могут только пользователи прошедшие не сложную регистрацию
    Показать сообщения:    


    Легенда восьми самураев через торрент
    Скачать бесплатно Легенда восьми самураев
    Легенда восьми самураев скачать торрент
    Легенда восьми самураев смотреть онлайн
    Cкачать фильм Легенда восьми самураев бесплатно
    Легенда восьми самураев скачать торрент в хорошем качестве
    Легенда восьми самураев смотреть онлайн бесплатно в хорошем качестве
    Вы не можете начинать темы
    Вы не можете отвечать на сообщения
    Вы не можете редактировать свои сообщения
    Вы не можете удалять свои сообщения
    Вы не можете голосовать в опросах
    Вы не можете прикреплять файлы к сообщениям
    Вы можете скачивать файлы
    Легенда восьми самураев / Satomi hakken-den [1983, Приключения, фэнтези, боевик, драма, UHD BDRemux 2160p] AVO [Кузнецов] смотреть онлайн, скачать торрент picoco.icu