Ребята, если до конца года каждый наш пользователь пожертвует хотя бы 10 рублей, нам хватит денег оплатить все наши расходы.

iTunes

iTunes

Миссия невыполнима: Последствия

iTunes

Поиск

4 сезон

дом

MVO

venom

iTunes

Багровая мята

iTunes

Проклятие монахини

iTunes

Человек на Луне Хит недели

ИГРА 18+

pack

RePack

Battlefield V Хит недели

RePack

Assassins Creed: Odyssey
pack

RePack

Darksiders 3

iTunes 4K

Миссия невыполнима: Последствия

RePack

fifa19

!!Акция!!

Alien_RageХит недели

RePack

NEED FOR SPEED™ PAYBACK

SATRip

9 сезон

Бесстыжие 9 сезон

Все сериалы

все сериалы на PB.wtf

iTunes

Мэнди

RePack

FAR CRY 5
  

Гриффины / Family Guy / Сезон: 17 / Серии: 1-8 из 20 (Джон Холмквист) [2018, Мультсериал, комедия, пародия, чёрный юмор, WEB-DLRip] MVO [Jaskier]

Гриффины через торрент

Размер: 2.09 GB | Добавлен: 7 д. назад | Торрент скачан:2 раза
Скачать  

12-10-2018 19:53 Гриффины Скачать торрент  

Гриффины / Family Guy
Год выпуска: 2018
Страна: США
Жанр: Мультсериал, комедия, пародия, чёрный юмор
Продолжительность: ~ 00:25:00
Перевод: Профессиональный (многоголосый) | Jaskier
Субтитры: отсутствуют

Режиссер: Джон Холмквист

rating

В ролях:

Сет МакФарлейн, Алекс Борштейн, Сет Грин, Мила Кунис, Майк Генри, Дэнни Смит, Патрик Варбертон, Джон Винер, Алек Салкин, Ральф Гармен

Описание:

"Гриффины" (Family Guy) - анимационное ТВ-Шоу, созданное Сетом МакФарлейном (Seth MacFarlane) для телеканала FOX. Как нетрудно догадаться, главными героями шоу является семейка Гриффинов: тупой, но полный сумашедших идей, составляющих львиную долю шуток сериала, отец семейства Питер; его любящя и терпеливая жена Лойс, всеми силами пытающаяся превратить Гриффинов в нормальную семью; их интеллектуально развитый не по годам, вынашивающий идею мирового господства младший сын Стьюи; дочь-ботаник, обречённая из-за этого на одиночество и непонимание как в школе так и дома, Мэг; и 13-ти летний отсталый в развитии лет на 10, сын Крис. Также полноценным членом семьи является пёс Брайн - склонный к меланхолии эстет, спокойно наблюдающий с бокалом вина в лапе над приключениями Питера и остальных членов семьи (и это при всём притом, что остальные собаки в сериале не являются очеловеченными).

Качество: WEB-DLRip
Формат: AVI

Видео: XviD, ~ 1500 kbps, 720x400 (16:9), 23.976 fps
Аудио#1: MP3, 48,0 КГц, 2 ch, 128 kbps - [RUS]
Аудио#2: MP3, 48,0 КГц, 2 ch, 128 kbps - [ENG]
скриншот  скриншот  скриншот  

Общее
Полное имя : D:\Family.Guy Season 17 (WEB-DLRip l 400p l Jaskier)\Family.Guyю.S17E01.WEB-DLRip.Jaskier.avi
Формат : AVI
Формат/Информация : Audio Video Interleave
Размер файла : 252 Мбайт
Продолжительность : 21 м. 37 с.
Общий поток : 1631 Кбит/сек
Программа кодирования : VirtualDubMod 1.5.10.2 (build 2540/release)
Библиотека кодирования : VirtualDubMod build 2540/release

Видео
Идентификатор : 0
Формат : MPEG-4 Visual
Профиль формата : Advanced Simple@L5
Параметр BVOP формата : 2
Параметр QPel формата : Нет
Параметр GMC формата : Без точки перехода
Параметр матрицы формата : Default (MPEG)
Идентификатор кодека : XVID
Идентификатор кодека/Подсказка : XviD
Продолжительность : 21 м. 37 с.
Битрейт : 1361 Кбит/сек
Ширина : 720 пикселей
Высота : 400 пикселей
Соотношение сторон : 16:9
Частота кадров : 23,976 (24000/1001) кадра/сек
Цветовое пространство : YUV
Субдискретизация насыщенности : 4:2:0
Битовая глубина : 8 бит
Тип развёртки : Прогрессивная
Метод сжатия : С потерями
Бит/(Пиксели*Кадры) : 0.197
Размер потока : 210 Мбайт (83%)
Библиотека кодирования : XviD 1.2.1 (UTC 2008-12-04)

Аудио #1
Идентификатор : 1
Формат : MPEG Audio
Версия формата : Version 1
Профиль формата : Layer 3
Режим : Joint stereo
Идентификатор кодека : 55
Идентификатор кодека/Подсказка : MP3
Продолжительность : 21 м. 37 с.
Вид битрейта : Постоянный
Битрейт : 128 Кбит/сек
Каналы : 2 канала
Частота : 48,0 КГц
Метод сжатия : С потерями
Размер потока : 19,8 Мбайт (8%)
Выравнивание : Соединение по промежуткам
Продолжительность промежутка : 42 мс. (1,00 видеокадр)
Время предзагрузки промежутка : 504 мс.
Библиотека кодирования : LAME3.100Є

Аудио #2
Идентификатор : 2
Формат : MPEG Audio
Версия формата : Version 1
Профиль формата : Layer 3
Режим : Joint stereo
Идентификатор кодека : 55
Идентификатор кодека/Подсказка : MP3
Продолжительность : 21 м. 37 с.
Вид битрейта : Постоянный
Битрейт : 128 Кбит/сек
Каналы : 2 канала
Частота : 48,0 КГц
Метод сжатия : С потерями
Размер потока : 19,8 Мбайт (8%)
Выравнивание : Соединение по промежуткам
Продолжительность промежутка : 42 мс. (1,00 видеокадр)
Время предзагрузки промежутка : 504 мс.
Библиотека кодирования : LAME3.100Є

Внимание! Раздача ведётся путём добавления новых серий; при каждом добавлении создаётся новый торрент. Чтобы начать докачку новой серии, пользователям необходимо сделать следующее:
(1) остановить скачивание,
(2) удалить старый торрент-файл у себя из клиента (старые серии удалять не надо),
(3) скачать новый торрент-файл из раздачи и запустить его у себя в клиенте вместо старого, при этом указать клиенту путь в старую папку, куда и должно происходить скачивание новых серий.



Скачать Гриффины через торрент https://i91.fastpic.ru/big/2018/1011/7b/9349baa14d947417cae7076648482e7b.png Скачать фильм Гриффины через торрент бесплантно в хорошем качестве Описание: "Гриффины" (Family Guy) - анимационное ТВ-Шоу, созданное Сетом МакФарлейном (Seth MacFarlane) для телеканала FOX. Как нетрудно ... 10 10 2
Торрент: Зарегистрирован [2018-12-06 18:34] · скачан: 2 раз
Статус: √ проверено
Размер: 2.09 GB
Как cкачать? Как скачать Гриффины через торрент | qTorrent

% Раздел Тема Автор DL S | L
Мультсериалы [ 2.41 GB ] Гриффины / Family Guy / Сезон: 17 / Серии: 1-8 из 20 [2018 пародия чёрный юмор WEB-DL 720p] MVO [Jaskier] bober100 Скачать
2 | 0


>> Регистрируемся здесь <<






Отзывы и комментарии о схеме читаем и пишем здесь: ---> Отзывы и комментарии о схеме

Новые благодарочки в телеграм довольных пользователей:
скриншот   скриншот   скриншот   скриншот   скриншот
    Дорогой пользователь! Огромная просьба, поблагодарите релизера, оцените раздачу и оставьте свои комментарий, если Вы скачали Гриффины через торрент бесплатно! Внесите свою лепту в развитие PiratBit!
    Комментировать посты могут только пользователи прошедшие не сложную регистрацию
    Показать сообщения:    

    Гриффины через торрент
    Скачать бесплатно Гриффины
    Гриффины скачать торрент
    Гриффины смотреть онлайн
    Cкачать фильм Гриффины бесплатно
    Гриффины скачать торрент в хорошем качестве
    Гриффины смотреть онлайн бесплатно в хорошем качестве


    Вы не можете начинать темы
    Вы не можете отвечать на сообщения
    Вы не можете редактировать свои сообщения
    Вы не можете удалять свои сообщения
    Вы не можете голосовать в опросах
    Вы не можете прикреплять файлы к сообщениям
    Вы можете скачивать файлы