Достать ножи: Стеклянная луковица

MVO

Добыча

Дубляж

Уэнсдэй

1 сезон

Тор

Дубляж

13 клиническая

1 сезон

Жестокая ночь

MVO

Одни из нас

1 сезон

Deluxe

pack

Рекомендуем

30

Пиратка

ВАЖНО

ВАЖНО

Ghostwire

Пиратка

jed

RePack

nioh2

RePack

RDR2

RePack

NEED FOR SPEED™ PAYBACK

RePack

скачать торрент

Кинопоиск HD

Острые козырьки 6 сезон

6 сезон

FAR CRY 6

RePack

скачать торрент

Лицензия

скачать торрент

MVO

1

1 сезон

скачать торрент

1 сезон

скачать торрент

Лицензия

  

Неудержимые / The Expendables (Сильвестр Сталлоне) [2010, боевик, триллер, приключения, UHD BDRemux 2160p] Дубляж (rus, ukr) + 2xAVO

Неудержимые через торрент piratbit.org

Размер: 56.97 GB | Добавлен: 4 года 3 мес. назад | Торрент скачан:18 раз
Смотреть онлайн | Скачать | Поддержите нас   

14-10-2018 05:58 Неудержимые Скачать торрент  

Неудержимые / The Expendables

Год выпуска: 2010
Страна: США
Жанр: боевик, триллер, приключения
Продолжительность: 01:43:28
Перевод: Дублированный, авторский
Субтитры: Русские (Forced, Full), английские (SDH, Full), немецкие (SDH)
Режиссер: Сильвестр Сталлоне
В ролях:

Сильвестр Сталлоне (Barney Ross), Джейсон Стэйтем (Lee Christmas), Джет Ли (Yin Yang), Жизель Итье (Sandra), Рэнди Кутюр (Toll Road), Дольф Лундгрен (Gunner Jensen), Терри Крюс (Hale Caesar), Микки Рурк (Tool), Эрик Робертс (James Munroe), Дэвид Зайас (General Garza), Стив Остин (Paine), Харизма Карпентер (Lacy)
Описание:
Отряд профессиональных наёмников и отчаянных парней во главе с Барни Россом получает непростое задание - любой ценой найти и уничтожить кровавого тирана-диктатора, нагнетающего страх на мирное население и сеющего хаос в южноамериканской стране.
Рейтинг:

MPAA: R - Лицам до 17 лет обязательно присутствие взрослого
Качество: UHD BDRemux 2160p
Формат: MKV
Видео: HEVC, HDR, 68.1 Мбит/с, 3840x2160, 23.976 Кадр/с
Аудио 1: Russian:48 kHz/16-bit, DTS-HD MA 5.1, ~3922 kbps avg (DTS Core: 5.1 / 48 kHz / 1509 kbps / 16-bit)Дублированный (Blu-ray)
Аудио 2: Ukrainian :48 kHz, AC3, 3/2 (L,C,R,l,r) + LFE ch, ~384 kbps avg - Дублированный
Аудио 3: Russian :48 kHz, AC3, 3/2 (L,C,R,l,r) + LFE ch, ~384 kbps avg - авторский перевод Леонида Володарского
Аудио 4: Russian:48 kHz, AC3, 3/2 (L,C,R,l,r) + LFE ch, ~448 kbps avg- авторский перевод Андрея Гаврилова
Аудио 5: English:48 kHz/24-bit, DTS-HD MA 5.1, ~5697 kbps avg (DTS Core: 5.1 / 48 kHz / 1509 kbps / 24-bit) - Оригинал
Аудио 6: English:48 kHz, AC3, 3/2 (L,C,R,l,r) + LFE ch, ~640 kbps avg-Оригинал
Навигация по главам: есть
Complete name : F:\4k\The.Expendables.2010.Rus.Eng.DTSHD.DL.2160p.UHD.BluRay.HDR.HEVC.Remux-SpaceHD13\The.Expendables.2010.Rus.Eng.DTSHD.DL.2160p.UHD.BluRay.HDR.HEVC.Remux-SpaceHD13.mkv
Format : Matroska
Format version : Version 4 / Version 2
File size : 57.0 GiB
Duration : 1 h 43 min
Overall bit rate : 78.8 Mb/s
Movie name : UHD 2160 || Release by SpaceHD13
Encoded date : UTC 2018-10-09 21:39:58
Writing application : mkvmerge v27.0.0 ('Metropolis') 64-bit
Writing library : libebml v1.3.6 + libmatroska v1.4.9
Cover : Yes
Attachments : cover.jpg

Video
ID : 1
Format : HEVC
Format/Info : High Efficiency Video Coding
Commercial name : HDR10
Format profile : Main 10@L5.1@High
Codec ID : V_MPEGH/ISO/HEVC
Duration : 1 h 43 min
Bit rate : 68.1 Mb/s
Width : 3 840 pixels
Height : 2 160 pixels
Display aspect ratio : 16:9
Frame rate mode : Constant
Frame rate : 23.976 (24000/1001) FPS
Color space : YUV
Chroma subsampling : 4:2:0 (Type 2)
Bit depth : 10 bits
Bits/(Pixel*Frame) : 0.343
Stream size : 49.2 GiB (86%)
Title : The.Expendables.2010.Rus.Eng.DTSHD.DL.2160p.UHD.BluRay.HDR.HEVC.Remux-SpaceHD13
Writing library : ATEME Titan File 3.7.9 (4.7.9.0)
Language : Russian
Default : Yes
Forced : No
Color range : Limited
Color primaries : BT.2020
Transfer characteristics : PQ
Matrix coefficients : BT.2020 non-constant
Mastering display color primaries : Display P3
Mastering display luminance : min: 0.0000 cd/m2, max: 1000 cd/m2
Maximum Content Light Level : 1000 cd/m2
Maximum Frame-Average Light Level : 446 cd/m2

Audio #1
ID : 2
Format : DTS
Format/Info : Digital Theater Systems
Format profile : MA / Core
Codec ID : A_DTS
Duration : 1 h 43 min
Bit rate mode : Variable / Constant
Bit rate : 3 072 kb/s / 1 509 kb/s
Channel(s) : 8 channels / 6 channels
Channel positions : Front: L C R, Side: L R, Back: L R, LFE / Front: L C R, Side: L R, LFE
Sampling rate : 48.0 kHz
Frame rate : 93.750 FPS (512 SPF)
Bit depth : 16 bits
Compression mode : Lossless / Lossy
Delay relative to video : 1 s 0 ms
Stream size : 2.23 GiB (4%)
Title : Дубляж-Blu-ray
Language : Russian
Default : Yes
Forced : No

Audio #2
ID : 3
Format : AC-3
Format/Info : Audio Coding 3
Codec ID : A_AC3
Duration : 1 h 43 min
Bit rate mode : Constant
Bit rate : 384 kb/s
Channel(s) : 2 channels
Channel positions : Front: L R
Sampling rate : 48.0 kHz
Frame rate : 31.250 FPS (1536 SPF)
Bit depth : 16 bits
Compression mode : Lossy
Delay relative to video : 1 s 200 ms
Stream size : 284 MiB (0%)
Title : Дубляж
Language : Ukrainian
Service kind : Complete Main
Default : No
Forced : No

Audio #3
ID : 4
Format : AC-3
Format/Info : Audio Coding 3
Codec ID : A_AC3
Duration : 1 h 43 min
Bit rate mode : Constant
Bit rate : 384 kb/s
Channel(s) : 2 channels
Channel positions : Front: L R
Sampling rate : 48.0 kHz
Frame rate : 31.250 FPS (1536 SPF)
Bit depth : 16 bits
Compression mode : Lossy
Delay relative to video : 1 s 200 ms
Stream size : 284 MiB (0%)
Title : VO-Volodarsky
Language : Russian
Service kind : Complete Main
Default : No
Forced : No

Audio #4
ID : 5
Format : AC-3
Format/Info : Audio Coding 3
Codec ID : A_AC3
Duration : 1 h 43 min
Bit rate mode : Constant
Bit rate : 448 kb/s
Channel(s) : 6 channels
Channel positions : Front: L C R, Side: L R, LFE
Sampling rate : 48.0 kHz
Frame rate : 31.250 FPS (1536 SPF)
Bit depth : 16 bits
Compression mode : Lossy
Delay relative to video : 1 s 200 ms
Stream size : 332 MiB (1%)
Title : AVO-Gavrilov
Language : Russian
Service kind : Complete Main
Default : No
Forced : No

Audio #5
ID : 6
Format : DTS
Format/Info : Digital Theater Systems
Format profile : MA / Core
Codec ID : A_DTS
Duration : 1 h 43 min
Bit rate mode : Variable / Constant
Bit rate : 5 697 kb/s / 1 509 kb/s
Channel(s) : 8 channels / 6 channels
Channel positions : Front: L C R, Side: L R, Back: L R, LFE / Front: L C R, Side: L R, LFE
Sampling rate : 48.0 kHz
Frame rate : 93.750 FPS (512 SPF)
Bit depth : 24 bits
Compression mode : Lossless / Lossy
Stream size : 4.12 GiB (7%)
Title : Original
Language : English
Default : No
Forced : No

Audio #6
ID : 7
Format : AC-3
Format/Info : Audio Coding 3
Codec ID : A_AC3
Duration : 1 h 43 min
Bit rate mode : Constant
Bit rate : 640 kb/s
Channel(s) : 6 channels
Channel positions : Front: L C R, Side: L R, LFE
Sampling rate : 48.0 kHz
Frame rate : 31.250 FPS (1536 SPF)
Bit depth : 16 bits
Compression mode : Lossy
Stream size : 474 MiB (1%)
Title : Original
Language : English
Service kind : Complete Main
Default : No
Forced : No

Text #1
ID : 8
Format : PGS
Muxing mode : zlib
Codec ID : S_HDMV/PGS
Codec ID/Info : Picture based subtitle format used on BDs/HD-DVDs
Duration : 1 h 27 min
Bit rate : 2 124 b/s
Count of elements : 104
Stream size : 1.33 MiB (0%)
Title : Sub-forced
Language : Russian
Default : Yes
Forced : No

Text #2
ID : 9
Format : PGS
Muxing mode : zlib
Codec ID : S_HDMV/PGS
Codec ID/Info : Picture based subtitle format used on BDs/HD-DVDs
Duration : 1 h 30 min
Bit rate : 38.4 kb/s
Count of elements : 1822
Stream size : 24.9 MiB (0%)
Title : Sub
Language : Russian
Default : No
Forced : No

Text #3
ID : 10
Format : PGS
Muxing mode : zlib
Codec ID : S_HDMV/PGS
Codec ID/Info : Picture based subtitle format used on BDs/HD-DVDs
Duration : 1 h 33 min
Bit rate : 44.3 kb/s
Count of elements : 1548
Stream size : 29.5 MiB (0%)
Language : German
Default : No
Forced : No

Text #4
ID : 11
Format : PGS
Muxing mode : zlib
Codec ID : S_HDMV/PGS
Codec ID/Info : Picture based subtitle format used on BDs/HD-DVDs
Duration : 1 h 34 min
Bit rate : 46.3 kb/s
Count of elements : 1716
Stream size : 31.3 MiB (0%)
Title : SDH
Language : German
Default : No
Forced : No

Text #5
ID : 12
Format : PGS
Muxing mode : zlib
Codec ID : S_HDMV/PGS
Codec ID/Info : Picture based subtitle format used on BDs/HD-DVDs
Duration : 1 h 29 min
Bit rate : 26.4 kb/s
Count of elements : 1740
Stream size : 16.9 MiB (0%)
Language : English
Default : No
Forced : No

Text #6
ID : 13
Format : PGS
Muxing mode : zlib
Codec ID : S_HDMV/PGS
Codec ID/Info : Picture based subtitle format used on BDs/HD-DVDs
Duration : 1 h 34 min
Bit rate : 29.3 kb/s
Count of elements : 2116
Stream size : 19.8 MiB (0%)
Title : SDH
Language : English
Default : No
Forced : No

Menu
00:00:00.000 : en:Chapter 01
00:08:50.821 : en:Chapter 02
00:17:32.176 : en:Chapter 03
00:22:47.741 : en:Chapter 04
00:30:35.166 : en:Chapter 05
00:33:34.846 : en:Chapter 06
00:38:17.128 : en:Chapter 07
00:47:51.493 : en:Chapter 08
00:50:14.928 : en:Chapter 09
00:55:08.847 : en:Chapter 10
01:00:15.737 : en:Chapter 11
01:06:31.529 : en:Chapter 12
01:13:36.370 : en:Chapter 13
01:20:17.229 : en:Chapter 14
01:26:01.322 : en:Chapter 15
01:31:16.971 : en:Chapter 16
01:43:26.533 : en:Chapter 17



Скачать Неудержимые через торрент https://d.radikal.ru/d39/1810/e9/e2d32b181ede.png Скачать, смотреть онлайн Неудержимые бесплантно в хорошем качестве Описание: Отряд профессиональных наёмников и отчаянных парней во главе с Барни Россом получает непростое задание - любой ценой найти и ... 10 10 2
Торрент: Зарегистрирован [2018-10-14 05:58] · скачан: 18 раз
Статус: √ проверено
Размер: 56.97 GB
Как cкачать? Как скачать Неудержимые через торрент | UTorrent

% Раздел Тема Автор DL S | L
Ultra HD (UHD: 2K, 4K, 8K) [ 15.28 GB ] Неудержимые / The Expendables | DUB | 2160p sheker187 Скачать
1 | 0

28-11-2019 20:33  


Отключить вcю реклaмy на сайте, в т.ч. и в плеере онлайн просмотра!

    Дорогой пользователь! Огромная просьба, поблагодарите релизера, оцените раздачу и оставьте свои комментарий, если Вы скачали Неудержимые через торрент бесплатно!!
    Комментировать посты могут только пользователи прошедшие не сложную регистрацию
    Показать сообщения:    


    Неудержимые через торрент
    Скачать бесплатно Неудержимые
    Неудержимые скачать торрент
    Неудержимые смотреть онлайн
    Cкачать фильм Неудержимые бесплатно
    Неудержимые скачать торрент в хорошем качестве
    Неудержимые смотреть онлайн бесплатно в хорошем качестве
    Вы не можете начинать темы
    Вы не можете отвечать на сообщения
    Вы не можете редактировать свои сообщения
    Вы не можете удалять свои сообщения
    Вы не можете голосовать в опросах
    Вы не можете прикреплять файлы к сообщениям
    Вы можете скачивать файлы
    Неудержимые / The Expendables [2010, боевик, триллер, приключения, UHD BDRemux 2160p] Дубляж + 2xAVO смотреть онлайн, скачать торрент picoco.icu