Достать ножи: Стеклянная луковица

MVO

Добыча

Дубляж

Уэнсдэй

1 сезон

Тор

Дубляж

13 клиническая

1 сезон

Жестокая ночь

MVO

Одни из нас

1 сезон

Deluxe

pack

Рекомендуем

30

Пиратка

ВАЖНО

ВАЖНО

Ghostwire

Пиратка

jed

RePack

nioh2

RePack

RDR2

RePack

NEED FOR SPEED™ PAYBACK

RePack

скачать торрент

Кинопоиск HD

Острые козырьки 6 сезон

6 сезон

FAR CRY 6

RePack

скачать торрент

Лицензия

скачать торрент

MVO

1

1 сезон

скачать торрент

1 сезон

скачать торрент

Лицензия

  

Неудержимые 2 / The Expendables 2 (Саймон Уэст) [2012, боевик, триллер, приключения, UHD BDRemux 2160p] Дубляж + VO + 2xAVO

Неудержимые 2 через торрент piratbit.org

Размер: 69.83 GB | Добавлен: 4 года 3 мес. назад | Торрент скачан:15 раз
Смотреть онлайн | Скачать | Поддержите нас   

15-10-2018 10:09 Неудержимые 2 Скачать торрент  

Неудержимые 2 / The Expendables 2«Они вернулись, чтобы зажечь»
Год выпуска: 2012
Страна: США
Жанр: боевик, триллер, приключения
Продолжительность: 01:42:42
Перевод: Дублированный, авторский, профессиональный одноголосый
Субтитры: Русские (Forced, Voronine, SDH, Goblin), немецеие (SDH, Forced), английские (SDH)
Режиссер: Саймон Уэст
В ролях:

Сильвестр Сталлоне (Barney Ross), Джейсон Стэйтем (Lee Christmas), Дольф Лундгрен (Gunner Jensen), Жан-Клод Ван Дамм (Vilain), Терри Крюс (Hale Caesar), Рэнди Кутюр (Toll Road), Лиам Хемсворт (Billy The Kid), Юй Нань (Maggie), Чак Норрис (Booker), Арнольд Шварценеггер (Trench), Брюс Уиллис (Church), Джет Ли (Yin Yang)
Описание:
Можно ли попробовать изменить расстановку сил в мире? Да, если вы круты, как Ван Дамм, у вас есть пять тонн плутония и первоклассные наемники. Стоит ли шутить с Уиллисом, когда вы ему серьезно задолжали? Нет, даже если вы опасны, как Сталлоне и у вас за спиной Неудержимые.
Рейтинг:

MPAA: R - Лицам до 17 лет обязательно присутствие взрослого
Качество: UHD BDRemux 2160p
Формат: MKV
Видео: HEVC, HDR, 69.3 Мбит/с, 3840x2160, 23.976 кадр/с
Аудио №1: RUS:DTS-HD Master Audio / 5.1 / 48 kHz / 2170 kbps / 16-bit (DTS Core: 5.1 / 48 kHz / 1509 kbps / 16-bit) |Дубляж (Blu-ray)
Аудио №2: RUS:DTS-HD Master Audio / 7.1 / 48 kHz / 5513 kbps / 24-bit (DTS Core: 5.1 / 48 kHz / 1509 kbps / 24-bit) |AVO (Гаврилов)
Аудио №3: RUS:DTS-HD Master Audio / 7.1 / 48 kHz / 5505 kbps / 24-bit (DTS Core: 5.1 / 48 kHz / 1509 kbps / 24-bit) |AVO (Горчаков)
Аудио №4: RUS:DTS-HD Master Audio / 7.1 / 48 kHz / 5393 kbps / 24-bit (DTS Core: 5.1 / 48 kHz / 1509 kbps / 24-bit) |А.Киреев (по переводу Гоблина)
Аудио №5: GER:DTS-HD Master Audio / 7.1 / 48 kHz / 3072 kbps / 24-bit (DTS Core: 5.1 / 48 kHz / 1509 kbps / 24-bit) |Дубляж
Аудио №6: ENG:TrueHD+Atmos / 7.1 / 48 kHz / 5579 kbps |Оригинал
Аудио №7: ENG:48 kHz, AC3, 3/2 (L,C,R,l,r) + LFE ch, ~640.00 kbps avg |Оригинал
Навигация по главам: есть
Complete name : D:\Movies\The.Expendables.2.2012.Rus.Ger.Eng.DTSHD.DL.2160p.UHD.BluRay.HDR.HEVC.Remux-SpaceHD13.mkv
Format : Matroska
Format version : Version 4 / Version 2
File size : 69.8 GiB
Duration : 1 h 42 min
Overall bit rate mode : Variable
Overall bit rate : 97.4 Mb/s
Movie name : UHD 2160 || Release by SpaceHD13
Encoded date : UTC 2018-10-05 11:09:47
Writing application : mkvmerge v27.0.0 ('Metropolis') 64-bit
Writing library : libebml v1.3.6 + libmatroska v1.4.9
Cover : Yes
Attachments : cover.jpg

Video
ID : 1
Format : HEVC
Format/Info : High Efficiency Video Coding
Commercial name : HDR10
Format profile : Main 10@L5.1@High
Codec ID : V_MPEGH/ISO/HEVC
Duration : 1 h 42 min
Bit rate : 69.3 Mb/s
Width : 3 840 pixels
Height : 2 160 pixels
Display aspect ratio : 16:9
Frame rate mode : Constant
Frame rate : 23.976 (24000/1001) FPS
Color space : YUV
Chroma subsampling : 4:2:0 (Type 2)
Bit depth : 10 bits
Bits/(Pixel*Frame) : 0.348
Stream size : 49.7 GiB (71%)
Title : The.Expendables.2.2012.Rus.Ger.Eng.DTSHD.DL.2160p.UHD.BluRay.HDR.HEVC.Remux-SpaceHD13
Writing library : ATEME Titan File 3.7.9 (4.7.9.0)
Language : Russian
Default : Yes
Forced : No
Color range : Limited
Color primaries : BT.2020
Transfer characteristics : PQ
Matrix coefficients : BT.2020 non-constant
Mastering display color primaries : Display P3
Mastering display luminance : min: 0.0000 cd/m2, max: 1000 cd/m2
Maximum Content Light Level : 1000 cd/m2
Maximum Frame-Average Light Level : 446 cd/m2

Audio #1
ID : 2
Format : DTS
Format/Info : Digital Theater Systems
Format profile : MA / Core
Codec ID : A_DTS
Duration : 1 h 42 min
Bit rate mode : Variable / Constant
Bit rate : 2 170 kb/s / 1 509 kb/s
Channel(s) : 6 channels
Channel positions : Front: L C R, Side: L R, LFE
Sampling rate : 48.0 kHz
Frame rate : 93.750 FPS (512 SPF)
Bit depth : 16 bits
Compression mode : Lossless / Lossy
Delay relative to video : 3 ms
Stream size : 1.56 GiB (2%)
Title : DTS-HD - Дубляж (Blu-ray)
Language : Russian
Default : Yes
Forced : No

Audio #2
ID : 3
Format : DTS
Format/Info : Digital Theater Systems
Format profile : MA / Core
Codec ID : A_DTS
Duration : 1 h 42 min
Bit rate mode : Variable / Constant
Bit rate : 5 513 kb/s / 1 509 kb/s
Channel(s) : 8 channels / 6 channels
Channel positions : Front: L C R, Side: L R, Back: L R, LFE / Front: L C R, Side: L R, LFE
Sampling rate : 48.0 kHz
Frame rate : 93.750 FPS (512 SPF)
Bit depth : 24 bits
Compression mode : Lossless / Lossy
Delay relative to video : 3 ms
Stream size : 3.95 GiB (6%)
Title : DTS-HD - AVO (Гаврилов)
Language : Russian
Default : No
Forced : No

Audio #3
ID : 4
Format : DTS
Format/Info : Digital Theater Systems
Format profile : MA / Core
Codec ID : A_DTS
Duration : 1 h 42 min
Bit rate mode : Variable / Constant
Bit rate : 5 505 kb/s / 1 509 kb/s
Channel(s) : 8 channels / 6 channels
Channel positions : Front: L C R, Side: L R, Back: L R, LFE / Front: L C R, Side: L R, LFE
Sampling rate : 48.0 kHz
Frame rate : 93.750 FPS (512 SPF)
Bit depth : 24 bits
Compression mode : Lossless / Lossy
Delay relative to video : 3 ms
Stream size : 3.95 GiB (6%)
Title : DTS-HD - AVO (Горчаков)
Language : Russian
Default : No
Forced : No

Audio #4
ID : 5
Format : DTS
Format/Info : Digital Theater Systems
Format profile : MA / Core
Codec ID : A_DTS
Duration : 1 h 42 min
Bit rate mode : Variable / Constant
Bit rate : 5 393 kb/s / 1 509 kb/s
Channel(s) : 8 channels / 6 channels
Channel positions : Front: L C R, Side: L R, Back: L R, LFE / Front: L C R, Side: L R, LFE
Sampling rate : 48.0 kHz
Frame rate : 93.750 FPS (512 SPF)
Bit depth : 24 bits
Compression mode : Lossless / Lossy
Delay relative to video : 3 ms
Stream size : 3.87 GiB (6%)
Title : DTS-HD - AVO (Киреев)
Language : Russian
Default : No
Forced : No

Audio #5
ID : 6
Format : DTS
Format/Info : Digital Theater Systems
Format profile : MA / Core
Codec ID : A_DTS
Duration : 1 h 42 min
Bit rate mode : Variable / Constant
Bit rate : 3 072 kb/s / 1 509 kb/s
Channel(s) : 8 channels / 6 channels
Channel positions : Front: L C R, Side: L R, Back: L R, LFE / Front: L C R, Side: L R, LFE
Sampling rate : 48.0 kHz
Frame rate : 93.750 FPS (512 SPF)
Bit depth : 16 bits
Compression mode : Lossless / Lossy
Stream size : 2.24 GiB (3%)
Title : [Дубляж]
Language : German
Default : No
Forced : No

Audio #6
ID : 7
Format : TrueHD
Format profile : TrueHD+Atmos / TrueHD
Codec ID : A_TRUEHD
Duration : 1 h 42 min
Bit rate mode : Variable
Bit rate : 5 579 kb/s
Maximum bit rate : 10.1 Mb/s
Channel(s) : Object Based / 8 channels
Channel positions : Object Based / Front: L C R, Side: L R, Back: L R, LFE
Sampling rate : / 48.0 kHz
Frame rate : 1 200.000 FPS (40 SPF)
Compression mode : Lossless
Stream size : 4.00 GiB (6%)
Title : [Atmos 7.1-Original]
Language : English
Default : No
Forced : No

Audio #7
ID : 8
Format : AC-3
Format/Info : Audio Coding 3
Codec ID : A_AC3
Duration : 1 h 42 min
Bit rate mode : Constant
Bit rate : 640 kb/s
Channel(s) : 6 channels
Channel positions : Front: L C R, Side: L R, LFE
Sampling rate : 48.0 kHz
Frame rate : 31.250 FPS (1536 SPF)
Bit depth : 16 bits
Compression mode : Lossy
Stream size : 470 MiB (1%)
Title : [Original]
Language : English
Service kind : Complete Main
Default : No
Forced : No

Text #1
ID : 9
Format : PGS
Muxing mode : zlib
Codec ID : S_HDMV/PGS
Codec ID/Info : Picture based subtitle format used on BDs/HD-DVDs
Duration : 1 h 32 min
Bit rate : 41.6 kb/s
Count of elements : 1666
Stream size : 27.6 MiB (0%)
Title : Deutsch-PGS
Language : German
Default : No
Forced : No

Text #2
ID : 10
Format : PGS
Muxing mode : zlib
Codec ID : S_HDMV/PGS
Codec ID/Info : Picture based subtitle format used on BDs/HD-DVDs
Duration : 1 h 33 min
Bit rate : 46.6 kb/s
Count of elements : 1980
Stream size : 31.1 MiB (0%)
Title : Deutsch SDH
Language : German
Default : No
Forced : No

Text #3
ID : 11
Format : PGS
Muxing mode : zlib
Codec ID : S_HDMV/PGS
Codec ID/Info : Picture based subtitle format used on BDs/HD-DVDs
Duration : 1 h 32 min
Bit rate : 408 b/s
Count of elements : 20
Stream size : 276 KiB (0%)
Title : Deutsch Forced
Language : German
Default : Yes
Forced : Yes

Text #4
ID : 12
Format : PGS
Muxing mode : zlib
Codec ID : S_HDMV/PGS
Codec ID/Info : Picture based subtitle format used on BDs/HD-DVDs
Duration : 1 h 29 min
Bit rate : 27.7 kb/s
Count of elements : 1976
Stream size : 17.8 MiB (0%)
Title : English-PGS
Language : English
Default : No
Forced : No

Text #5
ID : 13
Format : PGS
Muxing mode : zlib
Codec ID : S_HDMV/PGS
Codec ID/Info : Picture based subtitle format used on BDs/HD-DVDs
Duration : 1 h 31 min
Bit rate : 32.0 kb/s
Count of elements : 2320
Stream size : 21.0 MiB (0%)
Title : English SDH
Language : English
Default : No
Forced : No

Text #6
ID : 14
Format : PGS
Muxing mode : zlib
Codec ID : S_HDMV/PGS
Codec ID/Info : Picture based subtitle format used on BDs/HD-DVDs
Duration : 1 h 30 min
Bit rate : 301 b/s
Count of elements : 20
Stream size : 201 KiB (0%)
Title : Forced (Voronine)-PGS
Language : Russian
Default : No
Forced : No

Text #7
ID : 15
Format : PGS
Muxing mode : zlib
Codec ID : S_HDMV/PGS
Codec ID/Info : Picture based subtitle format used on BDs/HD-DVDs
Duration : 1 h 32 min
Bit rate : 39.1 kb/s
Count of elements : 1914
Stream size : 25.9 MiB (0%)
Title : Voronine-PGS
Language : Russian
Default : No
Forced : No

Text #8
ID : 16
Format : PGS
Muxing mode : zlib
Codec ID : S_HDMV/PGS
Codec ID/Info : Picture based subtitle format used on BDs/HD-DVDs
Duration : 1 h 32 min
Bit rate : 43.3 kb/s
Count of elements : 2108
Stream size : 28.7 MiB (0%)
Title : SDH (Voronine)-PGS
Language : Russian
Default : No
Forced : No

Text #9
ID : 17
Format : PGS
Muxing mode : zlib
Codec ID : S_HDMV/PGS
Codec ID/Info : Picture based subtitle format used on BDs/HD-DVDs
Duration : 1 h 31 min
Bit rate : 36.1 kb/s
Count of elements : 2644
Stream size : 23.6 MiB (0%)
Title : Goblin-PGS
Language : Russian
Default : No
Forced : No

Menu
00:00:00.000 : en:Chapter 01
00:10:03.436 : en:Chapter 02
00:18:05.417 : en:Chapter 03
00:24:54.868 : en:Chapter 04
00:28:42.846 : en:Chapter 05
00:31:31.556 : en:Chapter 06
00:39:10.681 : en:Chapter 07
00:48:53.305 : en:Chapter 08
00:54:34.437 : en:Chapter 09
00:59:23.935 : en:Chapter 10
01:04:30.116 : en:Chapter 11
01:07:14.447 : en:Chapter 12
01:13:42.459 : en:Chapter 13
01:20:17.354 : en:Chapter 14
01:28:26.676 : en:Chapter 15
01:31:24.479 : en:Chapter 16
01:42:39.736 : en:Chapter 17



Скачать Неудержимые 2 через торрент https://a.radikal.ru/a42/1810/6f/db5937577662.png Скачать, смотреть онлайн Неудержимые 2 бесплантно в хорошем качестве Описание: Можно ли попробовать изменить расстановку сил в мире? Да, если вы круты, как Ван Дамм, у вас есть пять тонн плутония и ... 10 10 5
Info! Золотая раздача, скачанное не засчитывается.
Торрент: Зарегистрирован [2018-10-15 10:09] · скачан: 15 раз
Статус: √ проверено
Размер: 69.83 GB
Как cкачать? Как скачать Неудержимые 2 через торрент | UTorrent

28-11-2019 20:33  


Отключить вcю реклaмy на сайте, в т.ч. и в плеере онлайн просмотра!

    Дорогой пользователь! Огромная просьба, поблагодарите релизера, оцените раздачу и оставьте свои комментарий, если Вы скачали Неудержимые 2 через торрент бесплатно!!
    Комментировать посты могут только пользователи прошедшие не сложную регистрацию
    Показать сообщения:    


    Неудержимые 2 через торрент
    Скачать бесплатно Неудержимые 2
    Неудержимые 2 скачать торрент
    Неудержимые 2 смотреть онлайн
    Cкачать фильм Неудержимые 2 бесплатно
    Неудержимые 2 скачать торрент в хорошем качестве
    Неудержимые 2 смотреть онлайн бесплатно в хорошем качестве
    Вы не можете начинать темы
    Вы не можете отвечать на сообщения
    Вы не можете редактировать свои сообщения
    Вы не можете удалять свои сообщения
    Вы не можете голосовать в опросах
    Вы не можете прикреплять файлы к сообщениям
    Вы можете скачивать файлы
    Неудержимые 2 / The Expendables 2 [2012, боевик, триллер, приключения, UHD BDRemux 2160p] Дубляж + VO + 2xAVO смотреть онлайн, скачать торрент picoco.icu