Достать ножи: Стеклянная луковица

MVO

Добыча

Дубляж

Уэнсдэй

1 сезон

Тор

Дубляж

13 клиническая

1 сезон

Жестокая ночь

MVO

Одни из нас

1 сезон

Deluxe

pack

Рекомендуем

30

Пиратка

ВАЖНО

ВАЖНО

Ghostwire

Пиратка

jed

RePack

nioh2

RePack

RDR2

RePack

NEED FOR SPEED™ PAYBACK

RePack

скачать торрент

Кинопоиск HD

Острые козырьки 6 сезон

6 сезон

FAR CRY 6

RePack

скачать торрент

Лицензия

скачать торрент

MVO

1

1 сезон

скачать торрент

1 сезон

скачать торрент

Лицензия

  

Призрак в доспехах / Ghost in the Shell (Руперт Сандерс) [2017, фантастика, боевик, триллер, UHD BDRip 2160p] [SDR] Дубляж (rus, ukr)

Призрак в доспехах через торрент piratbit.org

Размер: 20.8 GB | Добавлен: 4 года 3 мес. назад | Торрент скачан:67 раз
Смотреть онлайн | Скачать | Поддержите нас   

15-10-2018 10:37 Призрак в доспехах Скачать торрент  

Призрак в доспехах / Ghost in the Shell

Год выпуска: 2017
Страна: Великобритания, Китай, Индия, Гонконг, США
Жанр: фантастика, боевик, триллер, драма, криминал, детектив
Продолжительность: 01:46:56
Перевод: Дублированный
Субтитры: Русские (Форсированные, Полные), английские (Full, SDH), украинские (Форсированные, Полные)
Режиссер: Руперт Сандерс
В ролях:

Скарлетт Йоханссон (Major), Йохан Филип Асбек (Batou), Такеши Китано (Aramaki), Жюльет Бинош (Dr. Ouelet), Майкл Питт (Kuze), Чин Хань (Togusa), Дануся Самал (Ladriya), Ласарус Ратуэре (Ishikawa), Ютака Идзумихара (Saito), Таванда Маниймо (Borma), Питер Фердинандо (Cutter), Анамария Маринка (Dr. Dahlin)
Описание:
Кибер-технологии подчинили себе все сферы жизни, а самые опасные преступники переместились в виртуальное пространство. Киборг-гибрид, стоящий во главе элитного подразделения полиции, идет по следу могущественного хакера.
Рейтинг:

MPAA: PG-13 - Детям до 13 лет просмотр не желателен
Качество: UHD BDRip 2160p | SDR
Формат: MKV
Видео: MPEG-4 AVC, 22200 Кбит/с, 3840x2160, 23.976 кадр/с
Аудио #01: Русский / AC3 / 48 KHz / 5.1 ch / 640 Kbps (Дубляж - BD CEE)
Аудио #01: Украинский / AC3 / 48 KHz / 2 ch / 192 Kbps (Дубляж - iTunes)
Аудио #01: Английский / AC3 / 48 KHz / 5.1 ch / 640 Kbps (Original)
Аудио #01: Английский / Atmos / TrueHD / 48 KHz / 7.1 ch / 4131 Kbps (Original)
Навигация по главам: есть
- Изначально планировалось, что главную роль исполнит Марго Робби, но она отказалась. В итоге роль отдали Скарлетт Йоханссон.
- Сэм Райли претендовал на роль, которую получил Майкл Питт.
- Маттиас Шонартс мог сыграть Бато.
- Фильм снимался преимущественно в Веллингтоне (Новая Зеландия), а также в Гонконге и Шанхае.
- Большую часть мужских костюмов сшила компания Rembrandt – последний и старейший изготовитель костюмов в Новой Зеландии.
Общее
Уникальный идентификатор : 197961376760839172247096526407054076012 (0x94EDF96DECF7A4DFA12BE20CF7E3286C)
Полное имя : D:\Новая папкаVid\Новая_Мои раздачи\Ghost.in.the.Shell.2017.2160p.BluRay.SDR.8bit.UHD.4K.BDRip.x264.Master5.mkv
Формат : Matroska
Версия формата : Version 4 / Version 2
Размер файла : 20,8 Гбайт
Продолжительность : 1 ч. 46 м.
Режим общего битрейта : Переменный
Общий поток : 27,9 Мбит/сек
Название фильма : Ghost.in.the.Shell.2017.2160p.BluRay.SDR.8bit.UHD.4K.BDRip.x264.Master5
Дата кодирования : UTC 2017-11-09 06:04:22
Программа кодирования : mkvmerge v8.1.0 ('Psychedelic Postcard') 32bit
Библиотека кодирования : libebml v1.3.1 + libmatroska v1.4.2
Обложка : Yes
Attachments : cover.jpg / cover_land.jpg / small_cover.jpg / small_cover_land.jpg / cover.jpg

Видео
Идентификатор : 1
Формат : AVC
Формат/Информация : Advanced Video Codec
Профиль формата : High@L5.1
Параметр CABAC формата : Да
Параметр ReFrames формата : 5 кадров
Идентификатор кодека : V_MPEG4/ISO/AVC
Продолжительность : 1 ч. 46 м.
Битрейт : 22,2 Мбит/сек
Ширина : 3840 пикселей
Высота : 2160 пикселей
Соотношение сторон : 16:9
Режим частоты кадров : Постоянный
Частота кадров : 23,976 (24000/1001) кадра/сек
Цветовое пространство : YUV
Субдискретизация насыщенности : 4:2:0
Битовая глубина : 8 бит
Тип развёртки : Прогрессивная
Бит/(Пиксели*Кадры) : 0.112
Размер потока : 16,6 Гбайт (80%)
Заголовок : Ghost.in.the.Shell.2017.2160p.BluRay.SDR.8bit.UHD.4K.BDRip.x264.Master5
Библиотека кодирования : x264 core 148 r2748 97eaef2
Настройки программы : cabac=1 / ref=5 / deblock=1:-1:-1 / analyse=0x3:0x113 / me=umh / subme=10 / psy=1 / psy_rd=1.00:0.15 / mixed_ref=1 / me_range=48 / chroma_me=1 / trellis=2 / 8x8dct=1 / cqm=0 / deadzone=21,11 / fast_pskip=1 / chroma_qp_offset=-3 / threads=36 / lookahead_threads=3 / sliced_threads=0 / nr=0 / decimate=0 / interlaced=0 / bluray_compat=0 / constrained_intra=0 / bframes=3 / b_pyramid=2 / b_adapt=2 / b_bias=0 / direct=3 / weightb=1 / open_gop=0 / weightp=2 / keyint=250 / keyint_min=23 / scenecut=40 / intra_refresh=0 / rc_lookahead=50 / rc=crf / mbtree=1 / crf=18.0 / qcomp=0.60 / qpmin=0 / qpmax=69 / qpstep=4 / ip_ratio=1.40 / aq=1:1.00
Язык : English
Default : Да
Forced : Нет

Аудио #1
Идентификатор : 2
Формат : Atmos / TrueHD
Идентификатор кодека : A_TRUEHD
Продолжительность : 1 ч. 46 м.
Вид битрейта : Переменный
Битрейт : 4131 Кбит/сек
Максимальный битрейт : 7710 Кбит/сек
Каналы : Object Based / 8 каналов
Расположение каналов : Object Based / Front: L C R, Side: L R, Back: L R, LFE
Частота : / 48,0 КГц
Частота кадров : 1200,000 кадров/сек (40 spf)
Метод сжатия : Без потерь
Задержка видео : 32 мс.
Размер потока : 3,09 Гбайт (15%)
Язык : English
Default : Нет
Forced : Нет

Аудио #2
Идентификатор : 3
Формат : AC-3
Формат/Информация : Audio Coding 3
Расширение режима : CM (complete main)
Параметр Endianness формата : Big
Идентификатор кодека : A_AC3
Продолжительность : 1 ч. 46 м.
Вид битрейта : Постоянный
Битрейт : 640 Кбит/сек
Каналы : 6 каналов
Расположение каналов : Front: L C R, Side: L R, LFE
Частота : 48,0 КГц
Частота кадров : 31,250 кадров/сек (1536 spf)
Метод сжатия : С потерями
Размер потока : 490 Мбайт (2%)
Заголовок : Дубляж - BD CEE
Язык : Russian
Default : Да
Forced : Нет

Аудио #3
Идентификатор : 4
Формат : AC-3
Формат/Информация : Audio Coding 3
Расширение режима : CM (complete main)
Параметр Endianness формата : Big
Идентификатор кодека : A_AC3
Продолжительность : 1 ч. 46 м.
Вид битрейта : Постоянный
Битрейт : 192 Кбит/сек
Каналы : 2 канала
Расположение каналов : Front: L R
Частота : 48,0 КГц
Частота кадров : 31,250 кадров/сек (1536 spf)
Метод сжатия : С потерями
Размер потока : 147 Мбайт (1%)
Заголовок : Дубляж - iTunes
Язык : Ukrainian
Default : Нет
Forced : Нет

Аудио #4
Идентификатор : 5
Формат : AC-3
Формат/Информация : Audio Coding 3
Расширение режима : CM (complete main)
Параметр Endianness формата : Big
Идентификатор кодека : A_AC3
Продолжительность : 1 ч. 46 м.
Вид битрейта : Постоянный
Битрейт : 640 Кбит/сек
Каналы : 6 каналов
Расположение каналов : Front: L C R, Side: L R, LFE
Частота : 48,0 КГц
Частота кадров : 31,250 кадров/сек (1536 spf)
Метод сжатия : С потерями
Размер потока : 490 Мбайт (2%)
Заголовок : Original
Язык : English
Default : Нет
Forced : Нет

Текст #1
Идентификатор : 6
Формат : UTF-8
Идентификатор кодека : S_TEXT/UTF8
Идентификатор кодека/Информация : UTF-8 Plain Text
Продолжительность : 1 ч. 44 м.
Битрейт : 4 бит/сек
Count of elements : 76
Размер потока : 3,63 Кбайт (0%)
Заголовок : Форсированные
Язык : Russian
Default : Да
Forced : Нет

Текст #2
Идентификатор : 7
Формат : UTF-8
Идентификатор кодека : S_TEXT/UTF8
Идентификатор кодека/Информация : UTF-8 Plain Text
Продолжительность : 1 ч. 44 м.
Битрейт : 56 бит/сек
Count of elements : 916
Размер потока : 43,0 Кбайт (0%)
Заголовок : Полные
Язык : Russian
Default : Нет
Forced : Нет

Текст #3
Идентификатор : 8
Формат : UTF-8
Идентификатор кодека : S_TEXT/UTF8
Идентификатор кодека/Информация : UTF-8 Plain Text
Продолжительность : 1 ч. 44 м.
Битрейт : 4 бит/сек
Count of elements : 77
Размер потока : 3,56 Кбайт (0%)
Заголовок : Форсированные
Язык : Ukrainian
Default : Нет
Forced : Нет

Текст #4
Идентификатор : 9
Формат : UTF-8
Идентификатор кодека : S_TEXT/UTF8
Идентификатор кодека/Информация : UTF-8 Plain Text
Продолжительность : 1 ч. 44 м.
Битрейт : 57 бит/сек
Count of elements : 970
Размер потока : 44,1 Кбайт (0%)
Заголовок : Полные
Язык : Ukrainian
Default : Нет
Forced : Нет

Текст #5
Идентификатор : 10
Формат : UTF-8
Идентификатор кодека : S_TEXT/UTF8
Идентификатор кодека/Информация : UTF-8 Plain Text
Продолжительность : 1 ч. 34 м.
Битрейт : 32 бит/сек
Count of elements : 905
Размер потока : 22,9 Кбайт (0%)
Заголовок : Full
Язык : English
Default : Нет
Forced : Нет

Текст #6
Идентификатор : 11
Формат : UTF-8
Идентификатор кодека : S_TEXT/UTF8
Идентификатор кодека/Информация : UTF-8 Plain Text
Продолжительность : 1 ч. 35 м.
Битрейт : 39 бит/сек
Count of elements : 1129
Размер потока : 27,7 Кбайт (0%)
Заголовок : SDH
Язык : English
Default : Нет
Forced : Нет

Меню
00:00:00.000 : en:Chapter 1
00:08:09.363 : en:Chapter 2
00:14:40.004 : en:Chapter 3
00:21:26.535 : en:Chapter 4
00:28:02.722 : en:Chapter 5
00:34:13.259 : en:Chapter 6
00:39:27.656 : en:Chapter 7
00:43:57.843 : en:Chapter 8
00:51:49.856 : en:Chapter 9
00:55:19.107 : en:Chapter 10
01:01:06.913 : en:Chapter 11
01:07:49.774 : en:Chapter 12
01:14:37.014 : en:Chapter 13
01:20:31.785 : en:Chapter 14
01:27:46.219 : en:Chapter 15
01:33:41.449 : en:Chapter 16
01:38:00.124 : en:Chapter 17



Скачать Призрак в доспехах через торрент https://c.radikal.ru/c15/1810/15/c301023c2612.png Скачать, смотреть онлайн Призрак в доспехах бесплантно в хорошем качестве Описание: Кибер-технологии подчинили себе все сферы жизни, а самые опасные преступники переместились в виртуальное пространство. ... 7 10 4
Info! Золотая раздача, скачанное не засчитывается.
Торрент: Зарегистрирован [2018-10-15 10:37] · скачан: 67 раз
Статус: √ проверено
Размер: 20.8 GB
Как cкачать? Как скачать Призрак в доспехах через торрент | UTorrent

% Раздел Тема Автор DL S | L
Ultra HD (UHD: 2K, 4K, 8K) [ 58.42 GB ] Призрак в доспехах / Ghost in the Shell | DUB + AVO | 2160p sheker187 Скачать
1 | 0
Фильмы 2017 [DVDrip, WEB-DLRip, HDrip] (DUB, MVO) [ 746 MB ] Призрак в доспехах / Ghost in the Shell | iTunes | DLRip bober100 Скачать
1 | 0
Ultra HD (UHD: 2K, 4K, 8K) [ 12.17 GB ] Призрак в доспехах / Ghost in the Shell | Лицензия | 2160p sheker187 Скачать
1 | 0
Ultra HD (UHD: 2K, 4K, 8K) [ 55.19 GB ] Призрак в доспехах / Ghost in the Shell | DUB | 2160p sheker187 Скачать
1 | 0
Фильмы 2017 [DVDrip, WEB-DLRip, HDrip] (DUB, MVO) [ 742 MB ] Призрак в доспехах / Ghost in the Shell | iTunes | DLRip-AVC bober100 Скачать
1 | 0
Фильмы (HD 720p, 1080p) (48-60 fps) [ 5.73 GB ] Призрак в доспехах / Ghost in the Shell | Лицензия | 720p 60 fps от еnvy / NNNB еnvy Скачать
4 | 0
Ultra HD (UHD: 2K, 4K, 8K) [ 51.87 GB ] Призрак в доспехах / Ghost in the Shell | Лицензия | 2160p bober100 Скачать
1 | 0

28-11-2019 20:33  


Отключить вcю реклaмy на сайте, в т.ч. и в плеере онлайн просмотра!

    Дорогой пользователь! Огромная просьба, поблагодарите релизера, оцените раздачу и оставьте свои комментарий, если Вы скачали Призрак в доспехах через торрент бесплатно!!
    Комментировать посты могут только пользователи прошедшие не сложную регистрацию
    Показать сообщения:    


    Призрак в доспехах через торрент
    Скачать бесплатно Призрак в доспехах
    Призрак в доспехах скачать торрент
    Призрак в доспехах смотреть онлайн
    Cкачать фильм Призрак в доспехах бесплатно
    Призрак в доспехах скачать торрент в хорошем качестве
    Призрак в доспехах смотреть онлайн бесплатно в хорошем качестве
    Вы не можете начинать темы
    Вы не можете отвечать на сообщения
    Вы не можете редактировать свои сообщения
    Вы не можете удалять свои сообщения
    Вы не можете голосовать в опросах
    Вы не можете прикреплять файлы к сообщениям
    Вы можете скачивать файлы
    Призрак в доспехах / Ghost in the Shell [2017, фантастика, боевик, триллер, UHD BDRip 2160p] [SDR] Дубляж смотреть онлайн, скачать торрент picoco.icu