>

7.4

iTunes

7.4

2 сезон

9.4

1 сезон

1

7.4

2 сезон

7.2

iTunes

6.0

MVO

13

6.1

iTunes

8.3

Пиратка

30

ULTIMATE

pack

9.9

Лицензия

ВАЖНО

ИГРА 18+

pack

7.3

RePack

MK11

7.7

RePack

jed

7.8

RePack

fifa19

8.5

RePack

RDR2

RePack

NEED FOR SPEED™ PAYBACK

1 сезон

9 сезон

Бесстыжие 9 сезон

Все сериалы

все сериалы на PB.wtf

RePack

FAR CRY 5

Anonymous, доброй ночи, мы катастрофически не успеваем собрать деньги на оплату серверов, помогите нам пожалуйста 5,10,15р., для нас важна любая помощь . В качестве благодарности мы отключим Вам всю рекламу на сайте (укажите свой ник в строку Ваше имя)!

×
  
Magnet ссылка

Один день лета (Александр Игудин) [2018, комедия, музыка, мелодрама, TS 720p] piratbit.org

Один день лета через торрент piratbit.org

Размер: 2.65 GB | Добавлен: 3 года 3 мес. назад | Торрент скачан:53 раза
Смотреть онлайн Один день лета | Скачать    Ребята, помогите собрать деньги на оплату серверов!!!

15-10-2018 11:00 Один день лета Скачать торрент  

Один день летаГод выпуска: 2018
Страна: Россия
Жанр: комедия, музыка, мелодрама
Продолжительность: 01:34:35
Перевод: Не требуется
Субтитры: отсутствуют

Режиссер: Александр Игудин



В ролях:

Татьяна Бабенкова, Алекс Комаровский, Степан Ледков, Андрей Носков, Юрий Гальцев, Максим Леонидов, Иван Краско, Эра Зиганшина, Анастасия Лазо, Алексей Копылов

Описание:

Вся жизнь недавней провинциалки, а теперь москвички Кати - одно сплошное селфи с чередой знаменитостей. Любые интриги ради лайка, любые подвиги во имя статуса «звезды инстаграм». Но, количество подписчиков по-прежнему недостаточно и ради заветной цели она отправляется в Санкт-Петербург, чтобы сделать селфи с загадочным художником, скрывающим свою личность, и тем самым взорвать интернет. А в это время в аэропорту, солидный незнакомец просит Катю передать неизвестному ей адресату обычный конверт...

Выполнение этого поручения не только рушит ее планы, но и в результате всего лишь за один день в корне меняет ее взгляды на жизнь...

Качество: TS 720p
Формат: MKV

Видео: h.264,3 619 kb/s, 1280x672
Аудио: Русский, (AC3, 2 ch, 384 Кбит/с)
скриншот  скриншот  скриншот  

Общее
Уникальный идентификатор : 213735109236578817546614718429908269512 (0xA0CBE27BFF818CB1886B1A3CD57979C8)
Полное имя : C:\Users\Бобер\Desktop\OdInDen.Leta.2O18.O.TS.72Op_KOSHARA.mkv
Формат : Matroska
Версия формата : Version 2
Размер файла : 2,65 Гбайт
Продолжительность : 1 ч. 34 м.
Режим общего битрейта : Переменный
Общий поток : 4004 Кбит/сек
Дата кодирования : UTC 2018-10-14 03:58:12
Программа кодирования : mkvmerge v8.3.0 ('Over the Horizon') 64bit
Библиотека кодирования : libebml v1.3.1 + libmatroska v1.4.2

Видео
Идентификатор : 1
Формат : AVC
Формат/Информация : Advanced Video Codec
Профиль формата : High@L4.1
Параметр CABAC формата : Да
Параметр RefFrames формата : 4 кадра
Идентификатор кодека : V_MPEG4/ISO/AVC
Продолжительность : 1 ч. 34 м.
Вид битрейта : Переменный
Битрейт : 3619 Кбит/сек
Максимальный битрейт : 4000 Кбит/сек
Ширина : 1280 пикселей
Высота : 672 пикселя
Соотношение сторон : 1,905
Режим частоты кадров : Постоянный
Частота кадров : 23,976 (24000/1001) кадра/сек
Стандарт вещания : Component
Цветовое пространство : YUV
Субдискретизация насыщенности : 4:2:0
Битовая глубина : 8 бит
Тип развёртки : Прогрессивная
Бит/(Пиксели*Кадры) : 0.172
Размер потока : 2,34 Гбайт (88%)
Default : Да
Forced : Нет
Цветовой диапазон : Limited
Основные цвета : BT.709
Характеристики трансфера : BT.709
Коэффициенты матрицы : BT.709

Аудио
Идентификатор : 2
Формат : AC-3
Формат/Информация : Audio Coding 3
Расширение режима : CM (complete main)
Параметр Endianness формата : Big
Идентификатор кодека : A_AC3
Продолжительность : 1 ч. 34 м.
Вид битрейта : Постоянный
Битрейт : 384 Кбит/сек
Каналы : 2 канала
Расположение каналов : Front: L R
Частота : 48,0 КГц
Частота кадров : 31,250 кадров/сек (1536 spf)
Метод сжатия : С потерями
Размер потока : 260 Мбайт (10%)
Default : Да
Forced : Нет

piratbit.org



Скачать Один день лета через торрент http://img11.lostpic.net/2018/10/15/a36d38b547f78c566432438bf3c12048.jpg Скачать, смотреть онлайн Один день лета бесплантно в хорошем качестве Описание: Вся жизнь недавней провинциалки, а теперь москвички Кати - одно сплошное селфи с чередой знаменитостей. Любые интриги ради лайка, ... 9.5 10 2
Торрент: Зарегистрирован [2018-10-15 11:00] · скачан: 53 раз
Статус: T временная
Размер: 2.65 GB
Как cкачать? Как скачать Один день лета через торрент | UTorrent

% Раздел Тема Автор DL S | L
Наши фильмы 2018-2019 [ 751 MB ] Один день лета [2018 WEB-DLRip-AVC] [RUS] [IVI] Lithuania Скачать
1 | 0
T Наши фильмы (мультфильмы) cо спонсором показа (Новинки AVI/MKV) [ 1.37 GB ] Один день лета [2018 музыка TS] bober100 Скачать
1 | 0
Наши фильмы 2012 [ 1.4 GB ] Пять лет и один день [2012 SATRip] -=Cherry=- Скачать
1 | 0

28-11-2019 20:33  

Отключить всю рекламу на сайте

    Дорогой пользователь! Огромная просьба, поблагодарите релизера, оцените раздачу и оставьте свои комментарий, если Вы скачали Один день лета через торрент бесплатно!
    Комментировать посты могут только пользователи прошедшие не сложную регистрацию
    Показать сообщения:    

    Один день лета через торрент
    Скачать бесплатно Один день лета
    Один день лета скачать торрент
    Один день лета смотреть онлайн
    Cкачать фильм Один день лета бесплатно
    Один день лета скачать торрент в хорошем качестве
    Один день лета смотреть онлайн бесплатно в хорошем качестве


    Вы не можете начинать темы
    Вы не можете отвечать на сообщения
    Вы не можете редактировать свои сообщения
    Вы не можете удалять свои сообщения
    Вы не можете голосовать в опросах
    Вы не можете прикреплять файлы к сообщениям
    Вы можете скачивать файлы