1 сезон

3 сезон

iTunes

1

iTunes

DUB Netflix

iTunes

13

1 сезон

RePack

30

Deluxe

pack

Легкие деньги

ВАЖНО

ИГРА 18+

pack

RePack

MK11

RePack

jed

RePack

fifa19

RePack

RDR2

RePack

NEED FOR SPEED™ PAYBACK

4 сезон

9 сезон

Бесстыжие 9 сезон

Все сериалы

все сериалы на PB.wtf

RePack

FAR CRY 5

Anonymous, доброй ночи, мы не успеваем до 1 числа собрать деньги на оплату серверов, помогите нам пожалуйста в это трудное время. В качестве благодарности мы отключим Вам всю рекламу на сайте (укажите свой ник в строку Ваше имя)!

×
  
Magnet ссылка

Звоните ДиКаприо! / Сезон: 1 / Серии: 1-8 из 8 + Фильм о Фильме (Жора Крыжовников) [2018, комедия, драма, WEB-DLRip] piratbit.org

Звоните ДиКаприо! через торрент piratbit.org

Размер: 5.03 GB | Добавлен: 1 год назад | Торрент скачан:64 раза
Скачать  

19-10-2018 21:31 Звоните ДиКаприо! Скачать торрент  

Звоните ДиКаприо! Год выпуска: 2018
Страна: Россия
Жанр: комедия, драма
Продолжительность: ~ 00:50:00 серия
Перевод: Не требуется
Субтитры: отсутствуют

Режиссер: Жора Крыжовников



В ролях: Александр Петров (Егор Румянцев), Андрей Бурковский (Лев, брат Егора), Юлия Александрова, Юлия Хлынина, Александра Ревенко, Антон Васильев, Анна Невская, Яна Кошкина, Игорь Миркурбанов, Наталья Потапова, Данила Якушев, Маруся Климова

Описание: История об отношениях и судьбах двух братьев. Егор Румянцев - звезда хитового сериала про врачей. Он слетает с катушек от успеха: срывает съемки, путается в любовных связях, всем врет. Румянцев чувствует себя неуязвимым и живет для себя, ни во что не ставя чувства других людей. Но в один миг его мир переворачивается. Он узнает, что у него ВИЧ.

Качество: WEB-DLRip
Формат: AVI

Видео: 720х400 at 23.976 fps, XviD, ~1650 kbps avg
Аудио: Russian: 48 kHz, AC3, 2/0 (L,R) ch, ~192 kbps avg
скриншот  скриншот  скриншот  

Общее
Полное имя : D:\Zvonite.Dikaprio.2018.WEB-DLRip.25Kuzmich\Zvonite.Dikaprio.e01.WEB-DLRip.25Kuzmich.avi
Формат : AVI
Формат/Информация : Audio Video Interleave
Размер файла : 648 Мбайт
Продолжительность : 48 м. 58 с.
Общий поток : 1852 Кбит/сек
Программа кодирования : VirtualDubMod 1.5.10.3 | www.virtualdub-fr.org || (build 2550/release)
Библиотека кодирования : VirtualDubMod build 2550/release

Видео
Идентификатор : 0
Формат : MPEG-4 Visual
Профиль формата : Advanced Simple@L5
Параметр BVOP формата : 1
Параметр QPel формата : Нет
Параметр GMC формата : Без точки перехода
Параметр матрицы формата : Default (MPEG)
Идентификатор кодека : XVID
Идентификатор кодека/Подсказка : XviD
Продолжительность : 48 м. 58 с.
Битрейт : 1650 Кбит/сек
Ширина : 720 пикселей
Высота : 400 пикселей
Соотношение сторон : 16:9
Частота кадров : 25,000 кадров/сек
Цветовое пространство : YUV
Субдискретизация насыщенности : 4:2:0
Битовая глубина : 8 бит
Тип развёртки : Прогрессивная
Метод сжатия : С потерями
Бит/(Пиксели*Кадры) : 0.229
Размер потока : 578 Мбайт (89%)
Библиотека кодирования : XviD 1.2.1 (UTC 2008-12-04)

Аудио
Идентификатор : 1
Формат : AC-3
Формат/Информация : Audio Coding 3
Расширение режима : CM (complete main)
Параметр Endianness формата : Big
Идентификатор кодека : 2000
Продолжительность : 48 м. 58 с.
Вид битрейта : Постоянный
Битрейт : 192 Кбит/сек
Каналы : 2 канала
Расположение каналов : Front: L R
Частота : 48,0 КГц
Частота кадров : 31,250 кадров/сек (1536 spf)
Метод сжатия : С потерями
Размер потока : 67,2 Мбайт (10%)
Выравнивание : Разделение по промежуткам
Продолжительность промежутка : 40 мс. (1,00 видеокадр)
Время предзагрузки промежутка : 500 мс.

Когда раздача ведётся путём добавления новых серий, при каждом добавлении создётся новый торрент. Чтобы начать докачку новой серии, пользователям необходимо сделать следующее:
(1) остановить скачивание,
(2) удалить старый торрент у себя из клиента (старые серии удалять не надо),
(3) скачать новый торрент и запустить его у себя в клиенте вместо старого, при этом указать клиенту путь в старую папку, куда и должно происходить скачивание новых серий.
Ваш клиент при этом должен произвести хеширование (проверку) старой папки (если не производит сам - помогите ему сделать это), и будет докачивать только те серии, которых у вас ещё нет. Старые серии при этом не удаляются, а продолжают раздаваться!
Eсли вы уже удалили старые серии, то предотвратить повторную закачку старых серий можно, отжав галочку в соответсвующих местах при запуске нового торрента. По возможности, желательно не удалять старые серии как можно дольше, чтобы релизер не столько продолжал раздавать старые серии, а смог сконцентрироваться на новых.
piratbit.org



Скачать Звоните ДиКаприо! через торрент https://img10.lostpic.net/2018/10/19/f88c76b753b831325d02435667b47b94.jpg Скачать фильм Звоните ДиКаприо! через торрент бесплантно в хорошем качестве Описание: История об отношениях и судьбах двух братьев. Егор Румянцев - звезда хитового сериала про врачей. Он слетает с катушек от успеха: ... 9.4 10 28
Торрент: Зарегистрирован [2020-05-26 11:03] · скачан: 64 раз
Статус: √ проверено
Размер: 5.03 GB
Как cкачать? Как скачать Звоните ДиКаприо! через торрент | UTorrent



Последний раз редактировалось: bober100 (2020-05-26 11:03), всего редактировалось 2 раз(а)

28-11-2019 20:33  

Отключить всю рекламу на сайте

02-11-2018 22:45 Звоните ДиКаприо! Скачать торрент  

Сериал Огоньpiratbit.org



01-12-2018 19:43 Звоните ДиКаприо! Скачать торрент  

An_Dre писал(а):

Сериал Огонь

Всё просмотрел. Вот это говнище . Дааpiratbit.org



    Дорогой пользователь! Огромная просьба, поблагодарите релизера, оцените раздачу и оставьте свои комментарий, если Вы скачали Звоните ДиКаприо! через торрент бесплатно! Внесите свою лепту в развитие PiratBit!
    Комментировать посты могут только пользователи прошедшие не сложную регистрацию
    Показать сообщения:    

    Звоните ДиКаприо! через торрент
    Скачать бесплатно Звоните ДиКаприо!
    Звоните ДиКаприо! скачать торрент
    Звоните ДиКаприо! смотреть онлайн
    Cкачать фильм Звоните ДиКаприо! бесплатно
    Звоните ДиКаприо! скачать торрент в хорошем качестве
    Звоните ДиКаприо! смотреть онлайн бесплатно в хорошем качестве


    Вы не можете начинать темы
    Вы не можете отвечать на сообщения
    Вы не можете редактировать свои сообщения
    Вы не можете удалять свои сообщения
    Вы не можете голосовать в опросах
    Вы не можете прикреплять файлы к сообщениям
    Вы можете скачивать файлы