Лицензия

MVO

1

1 сезон

Лицензия

Лицензия

13

MVO

1 сезон

Deluxe Edition

pack

Рекомендуем

30

Repack

ВАЖНО

ВАЖНО

Ghostwire

RePack

jed

RePack

fifa19

RePack

RDR2

RePack

NEED FOR SPEED™ PAYBACK

RePack

Кинопоиск HD

 Острые козырьки 6 сезон

6 сезон

FAR CRY 6

RePack

Лицензия

MVO

1

1 сезон

1 сезон

Лицензия

  

Свадьба в Малиновке (Андрей Тутышкин) [1967, СССР, мюзикл, комедия, военный, BDRip 720p от AVP Studio]

Свадьба в Малиновке через торрент piratbit.org

Раздают: 9 [ 0 KB/s ]
Размер: 2.18 GB | Добавлен: 3 года 11 мес. назад | Торрент скачан:110 раз
Смотреть онлайн Свадьба в Малиновке | Скачать   

20-10-2018 09:22 Свадьба в Малиновке Скачать торрент  

Свадьба в Малиновке
Год выпуска: 1967
Страна: СССР
Студии: Ленфильм

Жанр: мюзикл, комедия, военный
Продолжительность: 01:32:20
Субтитры: нет

Режиссер: Андрей Тутышкин

В ролях:
Владимир Самойлов, Людмила Алфимова, Валентина Николаенко, Гелий Сысоев, Евгений Лебедев, Зоя Фёдорова, Михаил Пуговкин, Николай Сличенко, Андрей Абрикосов, Григорий Абрикосов, Михаил Водяной, Тамара Носова, Эмилия Трейвас, Алексей Смирнов...
Полный список актёров

Описание:
Широкоформатный фильм по мотивам оперетты Бориса Александрова.
Гражданская война. Накануне свадьбы пастуха Андрейки и красавицы Яринки неожиданно в Малиновку врывается банда атамана Грициана Таврического - и у жениха появляется соперник. Но Яринке удается сбежать от атамана в лес к красноармейцам. Командир отряда Назар решает освободить Малиновку и, чтобы отвлечь врага, уговаривает девушку разыграть свадьбу с Грицианом...

Исходник: BDRemux 1080p
Тип релиза:BDRip 720p
Контейнер: MKV

Видео: 1280x544 (2,35:1), 23,976 кадров/сек, H264 ~ 2929 kbps avg, 0.175 bit/pixel
Аудио: 48 kHz, Dolby Digital AC3 5.1, 448 kbps

Раздача от:
Общее
Полное имя : Svadba.v.Malinovke.1967.BDRip-720p_[New-team]_by_AVP_Studio.mkv
Формат : Matroska
Версия формата : Version 2
Размер файла : 2,18 Гбайт
Продолжительность : 1 ч. 32 м.
Общий поток : 3379 Кбит/сек
Дата кодирования : UTC 2018-10-19 16:05:07
Программа кодирования : mkvmerge v6.1.0 ('Old Devil') built on Mar 4 2013 09:10:42
Библиотека кодирования : libebml v1.3.0 + libmatroska v1.4.0

Видео
Идентификатор : 1
Формат : AVC
Формат/Информация : Advanced Video Codec
Профиль формата : High@L4.1
Настройки формата : CABAC / 8 Ref Frames
Параметр CABAC формата : Да
Параметр RefFrames формата : 8 кадров
Идентификатор кодека : V_MPEG4/ISO/AVC
Продолжительность : 1 ч. 32 м.
Битрейт : 2929 Кбит/сек
Ширина : 1280 пикселей
Высота : 544 пикселя
Соотношение сторон : 2,35:1
Режим частоты кадров : Постоянный
Частота кадров : 23,976 (24000/1001) кадра/сек
Цветовое пространство : YUV
Субдискретизация насыщенности : 4:2:0
Битовая глубина : 8 бит
Тип развёртки : Прогрессивная
Бит/(Пиксели*Кадры) : 0.175
Размер потока : 1,85 Гбайт (85%)
Библиотека кодирования : x264 core 157 r2932 303c484
Настройки программы : cabac=1 / ref=8 / deblock=1:-3:-3 / analyse=0x3:0x113 / me=umh / subme=10 / psy=1 / psy_rd=1.00:0.00 / mixed_ref=1 / me_range=32 / chroma_me=1 / trellis=2 / 8x8dct=1 / cqm=0 / deadzone=21,11 / fast_pskip=1 / chroma_qp_offset=-2 / threads=6 / lookahead_threads=1 / sliced_threads=0 / nr=0 / decimate=0 / interlaced=0 / bluray_compat=0 / constrained_intra=0 / bframes=8 / b_pyramid=2 / b_adapt=2 / b_bias=0 / direct=3 / weightb=1 / open_gop=0 / weightp=2 / keyint=240 / keyint_min=24 / scenecut=40 / intra_refresh=0 / rc_lookahead=40 / rc=2pass / mbtree=0 / bitrate=2929 / ratetol=1.0 / qcomp=0.60 / qpmin=0 / qpmax=69 / qpstep=4 / cplxblur=20.0 / qblur=0.5 / vbv_maxrate=50000 / vbv_bufsize=50000 / nal_hrd=none / filler=0 / ip_ratio=1.40 / pb_ratio=1.30 / aq=1:0.80
Default : Да
Forced : Нет

Аудио
Идентификатор : 2
Формат : AC-3
Формат/Информация : Audio Coding 3
Коммерческое название : Dolby Digital
Идентификатор кодека : A_AC3
Продолжительность : 1 ч. 32 м.
Вид битрейта : Постоянный
Битрейт : 448 Кбит/сек
Каналы : 6 каналов
Channel layout : L R C LFE Ls Rs
Частота : 48,0 КГц
Частота кадров : 31,250 кадров/сек (1536 SPF)
Битовая глубина : 16 бит
Метод сжатия : С потерями
Размер потока : 296 Мбайт (13%)
Default : Да
Forced : Нет



Скачать Свадьба в Малиновке через торрент http://c.radikal.ru/c30/1912/5b/ddde4fc66e96.png Скачать, смотреть онлайн Свадьба в Малиновке бесплантно в хорошем качестве Описание:Широкоформатный фильм по мотивам оперетты Бориса Александрова.Гражданская война. Накануне свадьбы пастуха Андрейки и красавицы ... 10 10 2
Info! Золотая раздача, скачанное не засчитывается.
Торрент: Зарегистрирован [2018-10-20 09:22] · скачан: 110 раз
Статус: √ проверено
Размер: 2.18 GB
Как cкачать? Как скачать Свадьба в Малиновке через торрент | UTorrent

% Раздел Тема Автор DL S | L
Кино СССР [ 4.37 GB ] Свадьба в Малиновке | | 1080p от AVP Studio AVP Studio Скачать
1 | 0
Кино СССР [ 5.33 GB ] Свадьба в Малиновке | | BDRip 720р kisa1980 Скачать
1 | 0
Кино СССР [ 1.46 GB ] Свадьба в Малиновке | | BDRip-AVC от AVP Studio AVP Studio Скачать
1 | 0
Кино СССР [ 1.09 GB ] Свадьба в Малиновке | | BDRip от AVP Studio AVP Studio Скачать
1 | 0
# Фильмы (BDRip, HDrip-AVC) (48-60 fps) [ 11.97 GB ] Свадьба в Малиновке | | BDRip-AVC by WSM WorldSM Скачать
1 | 0
Наши фильмы (Blu-ray, BD-Remux, HDDVD) [ 19.31 GB ] Свадьба в Малиновке | | 1080p dallas2007 Скачать
1 | 0
Кино СССР [ 1.46 GB ] Свадьба в Малиновке | | BDRip Ворон Скачать
1 | 0



Последний раз редактировалось: AVP Studio (2019-12-29 09:19), всего редактировалось 2 раз(а)

28-11-2019 20:33  

Отключить вcю реклaмy на сайте

25-12-2019 14:18 Свадьба в Малиновке Скачать торрент  

Привет 2019году, Спасибо за качественный "Винтаж" от Мамы и Тестя, смотрим Ваши фильмы, картинка и озвучка Супер, удачи



    Дорогой пользователь! Огромная просьба, поблагодарите релизера, оцените раздачу и оставьте свои комментарий, если Вы скачали Свадьба в Малиновке через торрент бесплатно!!
    Комментировать посты могут только пользователи прошедшие не сложную регистрацию
    Показать сообщения:    


    Свадьба в Малиновке через торрент
    Скачать бесплатно Свадьба в Малиновке
    Свадьба в Малиновке скачать торрент
    Свадьба в Малиновке смотреть онлайн
    Cкачать фильм Свадьба в Малиновке бесплатно
    Свадьба в Малиновке скачать торрент в хорошем качестве
    Свадьба в Малиновке смотреть онлайн бесплатно в хорошем качестве
    Вы не можете начинать темы
    Вы не можете отвечать на сообщения
    Вы не можете редактировать свои сообщения
    Вы не можете удалять свои сообщения
    Вы не можете голосовать в опросах
    Вы не можете прикреплять файлы к сообщениям
    Вы можете скачивать файлы