Достать ножи: Стеклянная луковица

MVO

Добыча

Дубляж

Уэнсдэй

1 сезон

Тор

Дубляж

13 клиническая

1 сезон

Жестокая ночь

MVO

Одни из нас

1 сезон

Deluxe

pack

Рекомендуем

30

Пиратка

ВАЖНО

ВАЖНО

Ghostwire

Пиратка

jed

RePack

nioh2

RePack

RDR2

RePack

NEED FOR SPEED™ PAYBACK

RePack

скачать торрент

Кинопоиск HD

Острые козырьки 6 сезон

6 сезон

FAR CRY 6

RePack

скачать торрент

Лицензия

скачать торрент

MVO

1

1 сезон

скачать торрент

1 сезон

скачать торрент

Лицензия

  

Трансформеры: Эпоха истребления / Transformers: Age of Extinction (Майкл Бэй) [2014, фантастика, боевик, приключения, UHD BDRip 2160p] Дубляж [rus, ukr]

Трансформеры: Эпоха истребления через торрент piratbit.org

Качают: 1 [ 0 KB/s ]
Размер: 31.71 GB | Добавлен: 4 года 3 мес. назад | Торрент скачан:42 раза
Смотреть онлайн | Скачать | Поддержите нас   

23-10-2018 09:35 Трансформеры: Эпоха истребления Скачать торрент  

Трансформеры: Эпоха истребления / Transformers: Age of Extinction«Сражаться вместе... Или погибнуть вместе»
Год выпуска: 2014
Страна: США, Китай
Жанр: фантастика, боевик, приключения
Продолжительность: 02:45:07
Перевод: Дублированный
Субтитры: Русские (полные: BD, iTUNES, форсированные), Украинские (полные: BD, форсированные), Английские (полные: 2 вида, SDH: 2 вида, SDH.COLORED: 2 вида) (*.srt, отключаемые)
Режиссер: Майкл Бэй
В ролях:

Марк Уолберг (Cade Yeager), Никола Пельтц (Tessa Yeager), Джек Рейнор (Shane Dyson), Стэнли Туччи (Joshua Joyce), Келси Грэммер (Harold Attinger), Титус Уэлливер (James Savoy), ТиДжей Миллер (Lucas Flannery), Ли Бинбин (Su Yueming), София Майлс (Darcy Tirrel), Питер Каллен (Optimus Prime, озвучка), Джон Гудман (Hound, озвучка), Кен Ватанабе (Drift, озвучка)
Описание:
Автоботы и десептиконы оставили человечество собирать планету по кусочкам. Между тем группа могущественных бизнесменов и гениальных ученых пытается извлечь уроки из ошибок прошлого и улучшить технологии до такой степени, чтобы выйти за пределы контролируемого ранее. В это время другая группа - древних мощных трансформеров - берет Землю под прицел.
Рейтинг:

MPAA: PG-13 - Детям до 13 лет просмотр не желателен
Качество: UHD BDRip 2160p
Формат: MKV
Видео: HEVC, HDR, 25800 Кбит/с, 3840x1600, 23.976 кадр/с, 10 bit
Аудио#1: 48.0 kHz, AC3 Dolby Digital, 3/2 (L,C,R,l,r) + LFE ch, 640 kbps avg | Дубляж - Blu-ray CEE
Аудио#2: 48.0 kHz, AC3 Dolby Digital, 3/2 (L,C,R,l,r) + LFE ch, 384 kbps avg | R5 *UKR*
Аудио#3: 48.0 kHz, AC3 Dolby Digital, 3/2 (L,C,R,l,r) + LFE ch, 640 kbps avg | Original
Навигация по главам: Есть
Общее
Уникальный идентификатор : 209820169703315416893026147288808231773 (0x9DD9E51017B0AA6295406E6D3415135D)
Полное имя : D:\Передел_2\Transformers.Age.of.Extinction.2014.BDRip.2160p.10bit.HEVC.HDR.4K.x265.Master5.mkv
Формат : Matroska
Версия формата : Version 4
Размер файла : 31,7 Гбайт
Продолжительность : 2 ч. 45 м.
Общий поток : 27,5 Мбит/сек
Название фильма : Transformers.Age.of.Extinction.2014.BDRip.2160p.10bit.HEVC.HDR.4K.x265.Master5
Дата кодирования : UTC 2018-10-15 20:06:40
Программа кодирования : mkvmerge v7.9.0 ('Birds') 64bit
Библиотека кодирования : libebml v1.3.1 + libmatroska v1.4.2
Обложка : Yes
Attachments : cover.jpg / cover.png

Видео
Идентификатор : 1
Формат : HEVC
Формат/Информация : High Efficiency Video Coding
Коммерческое название : HDR10
Профиль формата : Main 10@L5.1@High
Идентификатор кодека : V_MPEGH/ISO/HEVC
Продолжительность : 2 ч. 45 м.
Битрейт : 25,8 Мбит/сек
Ширина : 3840 пикселей
Высота : 1600 пикселей
Соотношение сторон : 2,40:1
Режим частоты кадров : Постоянный
Частота кадров : 23,976 (24000/1001) кадра/сек
Цветовое пространство : YUV
Субдискретизация насыщенности : 4:2:0 (Type 2)
Битовая глубина : 10 бит
Бит/(Пиксели*Кадры) : 0.175
Размер потока : 29,8 Гбайт (94%)
Заголовок : Transformers.Age.of.Extinction.2014.BDRip.2160p.10bit.HEVC.HDR.4K.x265.Master5
Библиотека кодирования : x265 2.6+4-f7498acb3874:[Windows][GCC 7.2.0][64 bit] 10bit
Настройки программы : cpuid=1050623 / frame-threads=3 / numa-pools=8 / wpp / no-pmode / no-pme / no-psnr / no-ssim / log-level=2 / input-csp=1 / input-res=3840x1600 / interlace=0 / total-frames=237537 / level-idc=51 / high-tier=1 / uhd-bd=0 / ref=4 / no-allow-non-conformance / repeat-headers / annexb / aud / hrd / info / hash=0 / no-temporal-layers / no-open-gop / min-keyint=24 / keyint=240 / bframes=4 / b-adapt=2 / b-pyramid / bframe-bias=0 / rc-lookahead=25 / lookahead-slices=4 / scenecut=40 / no-intra-refresh / ctu=64 / min-cu-size=8 / rect / no-amp / max-tu-size=32 / tu-inter-depth=1 / tu-intra-depth=1 / limit-tu=0 / rdoq-level=2 / dynamic-rd=0.00 / no-ssim-rd / signhide / no-tskip / nr-intra=0 / nr-inter=0 / no-constrained-intra / no-strong-intra-smoothing / max-merge=3 / limit-refs=3 / limit-modes / me=3 / subme=3 / merange=57 / temporal-mvp / weightp / no-weightb / no-analyze-src-pics / deblock=-3:-3 / no-sao / no-sao-non-deblock / rd=4 / no-early-skip / rskip / no-fast-intra / no-tskip-fast / no-cu-lossless / no-b-intra / no-splitrd-skip / rdpenalty=0 / psy-rd=2.00 / psy-rdoq=1.00 / no-rd-refine / analysis-reuse-mode=0 / no-lossless / cbqpoffs=0 / crqpoffs=0 / rc=crf / crf=17.0 / qcomp=0.60 / qpstep=4 / stats-write=0 / stats-read=0 / vbv-maxrate=160000 / vbv-bufsize=160000 / vbv-init=0.9 / crf-max=0.0 / crf-min=0.0 / ipratio=1.40 / pbratio=1.30 / aq-mode=1 / aq-strength=1.00 / cutree / zone-count=0 / no-strict-cbr / qg-size=32 / no-rc-grain / qpmax=69 / qpmin=0 / no-const-vbv / sar=1 / overscan=0 / videoformat=5 / range=0 / colorprim=9 / transfer=16 / colormatrix=9 / chromaloc=1 / chromaloc-top=2 / chromaloc-bottom=2 / display-window=0 / master-display=G(13250,34500)B(7500,3000)R(34000,16000)WP(15635,16450)L(10000000,1) / max-cll=0,0 / min-luma=0 / max-luma=1023 / log2-max-poc-lsb=8 / vui-timing-info / vui-hrd-info / slices=1 / opt-qp-pps / opt-ref-list-length-pps / no-multi-pass-opt-rps / scenecut-bias=0.05 / no-opt-cu-delta-qp / no-aq-motion / hdr / hdr-opt / no-dhdr10-opt / analysis-reuse-level=5 / scale-factor=0 / refine-intra=0 / refine-inter=0 / refine-mv=0 / no-limit-sao / ctu-info=0 / no-lowpass-dct / refine-mv-type=0 / copy-pic=1
Default : Да
Forced : Нет
Цветовой диапазон : Limited
Основные цвета : BT.2020
Характеристики трансфера : PQ
Коэффициенты матрицы : BT.2020 non-constant
MasteringDisplay_ColorPrimaries : Display P3
MasteringDisplay_Luminance : min: 0.0001 cd/m2, max: 1000 cd/m2

Аудио #1
Идентификатор : 2
Формат : AC-3
Формат/Информация : Audio Coding 3
Коммерческое название : Dolby Digital
Идентификатор кодека : A_AC3
Продолжительность : 2 ч. 45 м.
Вид битрейта : Постоянный
Битрейт : 640 Кбит/сек
Каналы : 6 каналов
Channel layout : L R C LFE Ls Rs
Частота : 48,0 КГц
Частота кадров : 31,250 кадров/сек (1536 SPF)
Битовая глубина : 16 бит
Метод сжатия : С потерями
Размер потока : 756 Мбайт (2%)
Заголовок : AC3 5.1 @ 640 kbps - Дубляж, Blu-ray CEE
Язык : Russian
ServiceKind/String : Complete Main
Default : Да
Forced : Нет

Аудио #2
Идентификатор : 3
Формат : AC-3
Формат/Информация : Audio Coding 3
Коммерческое название : Dolby Digital
Идентификатор кодека : A_AC3
Продолжительность : 2 ч. 45 м.
Вид битрейта : Постоянный
Битрейт : 384 Кбит/сек
Каналы : 6 каналов
Channel layout : L R C LFE Ls Rs
Частота : 48,0 КГц
Частота кадров : 31,250 кадров/сек (1536 SPF)
Битовая глубина : 16 бит
Метод сжатия : С потерями
Размер потока : 454 Мбайт (1%)
Заголовок : AC3 5.1 @ 384 kbps - Дубляж, R5
Язык : Ukrainian
ServiceKind/String : Complete Main
Default : Нет
Forced : Нет

Аудио #3
Идентификатор : 4
Формат : AC-3
Формат/Информация : Audio Coding 3
Коммерческое название : Dolby Digital
Идентификатор кодека : A_AC3
Продолжительность : 2 ч. 45 м.
Вид битрейта : Постоянный
Битрейт : 640 Кбит/сек
Каналы : 6 каналов
Channel layout : L R C LFE Ls Rs
Частота : 48,0 КГц
Частота кадров : 31,250 кадров/сек (1536 SPF)
Битовая глубина : 16 бит
Метод сжатия : С потерями
Размер потока : 756 Мбайт (2%)
Заголовок : AC3 5.1 @ 640 kbps - Original
Язык : English
ServiceKind/String : Complete Main
Default : Нет
Forced : Нет

Текст #1
Идентификатор : 5
Формат : UTF-8
Идентификатор кодека : S_TEXT/UTF8
Идентификатор кодека/Информация : UTF-8 Plain Text
Продолжительность : 2 ч. 36 м.
Битрейт : 97 бит/сек
ElementCount : 2083
Размер потока : 111 Кбайт (0%)
Заголовок : Full BD
Язык : Russian
Default : Нет
Forced : Нет

Текст #2
Идентификатор : 6
Формат : UTF-8
Идентификатор кодека : S_TEXT/UTF8
Идентификатор кодека/Информация : UTF-8 Plain Text
Продолжительность : 2 ч. 36 м.
Битрейт : 92 бит/сек
ElementCount : 1888
Размер потока : 106 Кбайт (0%)
Заголовок : Full ITUNES
Язык : Russian
Default : Нет
Forced : Нет

Текст #3
Идентификатор : 7
Формат : UTF-8
Идентификатор кодека : S_TEXT/UTF8
Идентификатор кодека/Информация : UTF-8 Plain Text
Продолжительность : 2 ч. 22 м.
Битрейт : 0 бит/сек
ElementCount : 24
Размер потока : 971 байт (0%)
Заголовок : Forced
Язык : Russian
Default : Да
Forced : Нет

Текст #4
Идентификатор : 8
Формат : UTF-8
Идентификатор кодека : S_TEXT/UTF8
Идентификатор кодека/Информация : UTF-8 Plain Text
Продолжительность : 2 ч. 34 м.
Битрейт : 101 бит/сек
ElementCount : 2193
Размер потока : 115 Кбайт (0%)
Заголовок : Full BD
Язык : Ukrainian
Default : Нет
Forced : Нет

Текст #5
Идентификатор : 9
Формат : UTF-8
Идентификатор кодека : S_TEXT/UTF8
Идентификатор кодека/Информация : UTF-8 Plain Text
Продолжительность : 2 ч. 22 м.
Битрейт : 0 бит/сек
ElementCount : 23
Размер потока : 960 байт (0%)
Заголовок : Forced
Язык : Ukrainian
Default : Нет
Forced : Нет

Текст #6
Идентификатор : 10
Формат : UTF-8
Идентификатор кодека : S_TEXT/UTF8
Идентификатор кодека/Информация : UTF-8 Plain Text
Продолжительность : 2 ч. 34 м.
Битрейт : 62 бит/сек
ElementCount : 2206
Размер потока : 70,7 Кбайт (0%)
Заголовок : Full v1
Язык : English
Default : Нет
Forced : Нет

Текст #7
Идентификатор : 11
Формат : UTF-8
Идентификатор кодека : S_TEXT/UTF8
Идентификатор кодека/Информация : UTF-8 Plain Text
Продолжительность : 2 ч. 34 м.
Битрейт : 62 бит/сек
ElementCount : 2310
Размер потока : 71,2 Кбайт (0%)
Заголовок : Full v2
Язык : English
Default : Нет
Forced : Нет

Текст #8
Идентификатор : 12
Формат : UTF-8
Идентификатор кодека : S_TEXT/UTF8
Идентификатор кодека/Информация : UTF-8 Plain Text
Продолжительность : 2 ч. 35 м.
Битрейт : 68 бит/сек
ElementCount : 2509
Размер потока : 78,5 Кбайт (0%)
Заголовок : SDH
Язык : English
Default : Нет
Forced : Нет

Текст #9
Идентификатор : 13
Формат : UTF-8
Идентификатор кодека : S_TEXT/UTF8
Идентификатор кодека/Информация : UTF-8 Plain Text
Продолжительность : 2 ч. 35 м.
Битрейт : 66 бит/сек
ElementCount : 2605
Размер потока : 76,2 Кбайт (0%)
Заголовок : SDH.ITUNES
Язык : English
Default : Нет
Forced : Нет

Текст #10
Идентификатор : 14
Формат : UTF-8
Идентификатор кодека : S_TEXT/UTF8
Идентификатор кодека/Информация : UTF-8 Plain Text
Продолжительность : 2 ч. 35 м.
Битрейт : 85 бит/сек
ElementCount : 2509
Размер потока : 97,6 Кбайт (0%)
Заголовок : SDH.COLORED.v1
Язык : English
Default : Нет
Forced : Нет

Текст #11
Идентификатор : 15
Формат : UTF-8
Идентификатор кодека : S_TEXT/UTF8
Идентификатор кодека/Информация : UTF-8 Plain Text
Продолжительность : 2 ч. 35 м.
Битрейт : 78 бит/сек
ElementCount : 2605
Размер потока : 89,1 Кбайт (0%)
Заголовок : SDH.COLORED.v2
Язык : English
Default : Нет
Forced : Нет

Меню
00:00:00.000 : en:(01)00:00:00:000
00:06:51.576 : en:(02)00:06:51:576
00:14:33.581 : en:(03)00:14:33:581
00:21:37.461 : en:(04)00:21:37:461
00:30:13.394 : en:(05)00:30:13:394
00:38:45.989 : en:(06)00:38:45:989
00:46:08.056 : en:(07)00:46:08:056
00:51:39.512 : en:(08)00:51:39:512
00:59:09.336 : en:(09)00:59:09:336
01:07:48.646 : en:(10)01:07:48:646
01:15:14.551 : en:(11)01:15:14:551
01:23:25.291 : en:(12)01:23:25:291
01:29:14.724 : en:(13)01:29:14:724
01:37:16.956 : en:(14)01:37:16:956
01:44:35.435 : en:(15)01:44:35:435
01:51:25.052 : en:(16)01:51:25:052
01:57:47.935 : en:(17)01:57:47:935
02:04:48.479 : en:(18)02:04:48:479
02:12:35.863 : en:(19)02:12:35:863
02:21:04.204 : en:(20)02:21:04:204
02:28:48.668 : en:(21)02:28:48:668
02:37:09.628 : en:(22)02:37:09:628



Скачать Трансформеры: Эпоха истребления через торрент http://i101.fastpic.ru/big/2018/0125/3e/b6961e2785758615b3a2d1b4d038f13e.png Скачать, смотреть онлайн Трансформеры: Эпоха истребления бесплантно в хорошем качестве Описание: Автоботы и десептиконы оставили человечество собирать планету по кусочкам. Между тем группа могущественных бизнесменов и ... 5 10 1
Торрент: Зарегистрирован [2018-10-23 09:35] · скачан: 42 раз
Статус: √ проверено
Размер: 31.71 GB
Как cкачать? Как скачать Трансформеры: Эпоха истребления через торрент | UTorrent

% Раздел Тема Автор DL S | L
Ultra HD (UHD: 2K, 4K, 8K) [ 85.59 GB ] Трансформеры: Эпоха истребления / Transformers: Age of Extinction | Лицензия | 2160p bober100 Скачать
1 | 1
Фильмы [HD 720p, 1080p] (Хороший звук DUB, MVO) [ 11.2 GB ] Трансформеры: Эпоха истребления / Transformers: Age of Extinction | Лицензия | 1080p, (10 Bit bober100 Скачать
1 | 1
Ultra HD (UHD: 2K, 4K, 8K) [ 89.42 GB ] Трансформеры: Эпоха истребления / Transformers: Age of Extinction | DUB | 2160p sheker187 Скачать
1 | 0
Фильмы (HD 720p, 1080p) (48-60 fps) [ 9.43 GB ] Трансформеры: Эпоха истребления / Transformers: Age of Extinction | Лицензия | 720p, 48fps, IMAX, Дубляж, Лицензия mimok Скачать
1 | 1
Фильмы [HD 720p, 1080p] (Хороший звук DUB, MVO) [ 15.63 GB ] Трансформеры: Эпоха истребления / Transformers: Age of Extinction [IMAX | Лицензия | 1080p, Dub, Лицензия Seedtank Скачать
1 | 1
3D Фильмы [ 31.08 GB ] Трансформеры: Эпоха истребления / Transformers: Age Of Extinction | | 1080p serega768 Скачать
1 | 1
Фильмы (DVD фильмы) [ 6.58 GB ] Трансформеры: Эпоха истребления / Transformers: Age of Extinction | | 2014, фантастика, боевик, приключения, DVD9 voovaz Скачать
1 | 0

28-11-2019 20:33  


Отключить вcю реклaмy на сайте, в т.ч. и в плеере онлайн просмотра!

    Дорогой пользователь! Огромная просьба, поблагодарите релизера, оцените раздачу и оставьте свои комментарий, если Вы скачали Трансформеры: Эпоха истребления через торрент бесплатно!!
    Комментировать посты могут только пользователи прошедшие не сложную регистрацию
    Показать сообщения:    


    Трансформеры: Эпоха истребления через торрент
    Скачать бесплатно Трансформеры: Эпоха истребления
    Трансформеры: Эпоха истребления скачать торрент
    Трансформеры: Эпоха истребления смотреть онлайн
    Cкачать фильм Трансформеры: Эпоха истребления бесплатно
    Трансформеры: Эпоха истребления скачать торрент в хорошем качестве
    Трансформеры: Эпоха истребления смотреть онлайн бесплатно в хорошем качестве
    Вы не можете начинать темы
    Вы не можете отвечать на сообщения
    Вы не можете редактировать свои сообщения
    Вы не можете удалять свои сообщения
    Вы не можете голосовать в опросах
    Вы не можете прикреплять файлы к сообщениям
    Вы можете скачивать файлы
    Трансформеры: Эпоха истребления / Transformers: Age of Extinction [2014, фантастика, боевик, приключения, UHD BDRip 2160p] Дубляж [rus, ukr] смотреть онлайн, скачать торрент picoco.icu