Достать ножи: Стеклянная луковица

MVO

Добыча

Дубляж

Уэнсдэй

1 сезон

Тор

Дубляж

13 клиническая

1 сезон

Жестокая ночь

MVO

Одни из нас

1 сезон

Deluxe

pack

Рекомендуем

30

Пиратка

ВАЖНО

ВАЖНО

Ghostwire

Пиратка

jed

RePack

nioh2

RePack

RDR2

RePack

NEED FOR SPEED™ PAYBACK

RePack

скачать торрент

Кинопоиск HD

Острые козырьки 6 сезон

6 сезон

FAR CRY 6

RePack

скачать торрент

Лицензия

скачать торрент

MVO

1

1 сезон

скачать торрент

1 сезон

скачать торрент

Лицензия

  

Судная ночь 3 / The Purge: Election Year (Джеймс ДеМонако) [2016, ужасы, фантастика, боевик, UHD BDRemux 2160p] Дубляж [Лицензия] + AVO [М. Яроцкий]

Судная ночь 3 через торрент piratbit.org

Размер: 52.75 GB | Добавлен: 3 года 1 мес. назад | Торрент скачан:17 раз
Смотреть онлайн | Скачать | Поддержите нас   

23-10-2018 15:09 Судная ночь 3 Скачать торрент  

Судная ночь 3 / The Purge: Election Year«Один раз в году все преступления законны»
Год выпуска: 2016
Страна: США, Франция
Жанр: ужасы, фантастика, боевик, триллер
Продолжительность: 01:48:49
Перевод 1: Профессиональный (дублированный) Blu-ray
Перевод 2: Одноголосый закадровый М. Яроцкий
Субтитры: русские (forced, full), английские (full, SDH)

Режиссер: Джеймс ДеМонако
В ролях:

Фрэнк Грилло (Leo Barnes), Элизабет Митчелл (Senator Charlie Roan), Майкелти Уильямсон (Joe Dixon), Джозеф Джулиан Сория (Marcos), Бетти Гэбриел (Laney Rucker), Терри Серпико (Earl Danzinger), Эдвин Ходж (Dante Bishop), Кайл Сикор (Minister Edwidge Owens), Бэрри Нолан (Reporter #1), Лиза Колон-Зайас (Dawn), Итэн Филлипс (Chief Couper), Адам Кантор (Tall Eric Busmalis)
Описание:
Добро пожаловать в идеальное будущее, в котором Судная ночь превратилась в международный тренд. Туристы со всего мира прибывают в аэропорты Америки: ведь всего лишь раз в году здесь позволено все, главное - дожить до рассвета.
Рейтинг:

MPAA: R - Лицам до 17 лет обязательно присутствие взрослого
Качество: UHD BDRemux 2160p
Формат: MKV
Видео: MPEG-H HEVC Video / 58998 kbps / 3840x2160 / 23.976 fps / 16:9 / Main 10 @ Level 5.1 @ High / 4:2:0 / 10 bits / HDR10 / BT.2020
Аудио 1: Russian DTS / 5.1 / 48 kHz / 768 kbps / 24 bits |Дубляж, Blu-ray|
Аудио 2: Russian DTS-HD Master Audio / 5.1 / 48 kHz / 3837 kbps / 24 bits (DTS Core: 5.1 / 48 kHz / 1510 kbps / 24 bits) |М. Яроцкий|
Аудио 3: English DTS:X/DTS-HD Master Audio / 7.1-X / 48 kHz / 5802 kbps / 24-bit (DTS Core: 5.1 / 48 kHz / 1509 kbps / 24-bit) |original|
Навигация по главам: есть

Общее
Уникальный идентификатор : 112295264529770126386584484391992123759 (0x547B480076BB88CED08BBD6CD2FB616F)
Полное имя : H:\UHD\Судная ночь 3.2016.UHD.Blu-Ray.Remux.2160p.mkv
Формат : Matroska
Версия формата : Version 4
Размер файла : 52,8 Гбайт
Продолжительность : 1 ч. 48 м.
Режим общего битрейта : Переменный
Общий поток : 69,4 Мбит/сек
Дата кодирования : UTC 2019-12-25 19:32:08
Программа кодирования : mkvmerge v41.0.0 ('Smarra') 64-bit
Библиотека кодирования : libebml v1.3.9 + libmatroska v1.5.2
Attachments : poster.jpg

Видео
Идентификатор : 1
Формат : HEVC
Формат/Информация : High Efficiency Video Coding
Профиль формата : Main 10@L5.1@High
HDR_Format/String : SMPTE ST 2086, HDR10 compatible
Идентификатор кодека : V_MPEGH/ISO/HEVC
Продолжительность : 1 ч. 48 м.
Битрейт : 59,0 Мбит/сек
Ширина : 3840 пикселей
Высота : 2160 пикселей
Соотношение сторон : 16:9
Режим частоты кадров : Постоянный
Частота кадров : 23,976 (24000/1001) кадра/сек
Цветовое пространство : YUV
Субдискретизация насыщенности : 4:2:0 (Type 2)
Битовая глубина : 10 бит
Бит/(Пиксели*Кадры) : 0.297
Размер потока : 44,8 Гбайт (85%)
Библиотека кодирования : ATEME Titan File 3.8.3 (4.8.3.0)
Язык : English
Default : Да
Forced : Нет
Цветовой диапазон : Limited
Основные цвета : BT.2020
Характеристики трансфера : PQ
Коэффициенты матрицы : BT.2020 non-constant
MasteringDisplay_ColorPrimaries : Display P3
MasteringDisplay_Luminance : min: 0.0050 cd/m2, max: 1000 cd/m2
MaxCLL : 833 cd/m2
MaxFALL : 194 cd/m2

Аудио #1
Идентификатор : 2
Формат : DTS
Формат/Информация : Digital Theater Systems
Идентификатор кодека : A_DTS
Продолжительность : 1 ч. 48 м.
Вид битрейта : Постоянный
Битрейт : 768 Кбит/сек
Каналы : 6 каналов
ChannelLayout : C L R Ls Rs LFE
Частота : 48,0 КГц
Частота кадров : 93,750 кадра/сек (512 SPF)
Битовая глубина : 24 бит
Метод сжатия : С потерями
Размер потока : 598 Мбайт (1%)
Заголовок : Дубляж, Blu-ray
Язык : Russian
Default : Да
Forced : Нет

Аудио #2
Идентификатор : 3
Формат : DTS XLL
Формат/Информация : Digital Theater Systems
Коммерческое название : DTS-HD Master Audio
Идентификатор кодека : A_DTS
Продолжительность : 1 ч. 48 м.
Вид битрейта : Переменный
Битрейт : 3837 Кбит/сек
Каналы : 6 каналов
ChannelLayout : C L R Ls Rs LFE
Частота : 48,0 КГц
Частота кадров : 93,750 кадра/сек (512 SPF)
Битовая глубина : 24 бит
Метод сжатия : Без потерь
Размер потока : 2,92 Гбайт (6%)
Заголовок : М. Яроцкий
Язык : Russian
Default : Нет
Forced : Нет

Аудио #3
Идентификатор : 4
Формат : DTS XLL X
Формат/Информация : Digital Theater Systems
Коммерческое название : DTS-HD Master Audio
Идентификатор кодека : A_DTS
Продолжительность : 1 ч. 48 м.
Вид битрейта : Переменный
Битрейт : 5802 Кбит/сек
Каналы : 8 каналов
Channel(s)_Original : Object Based
ChannelLayout_Original : Object Based
Частота : 48,0 КГц
Частота кадров : 93,750 кадра/сек (512 SPF)
Битовая глубина : 24 бит
Размер потока : 4,41 Гбайт (8%)
Язык : English
Default : Нет
Forced : Нет

Текст #1
Идентификатор : 5
Формат : UTF-8
Идентификатор кодека : S_TEXT/UTF8
Идентификатор кодека/Информация : UTF-8 Plain Text
Продолжительность : 1 ч. 40 м.
Битрейт : 1 бит/сек
ElementCount : 29
Размер потока : 1,19 Кбайт (0%)
Заголовок : forced
Язык : Russian
Default : Да
Forced : Нет

Текст #2
Идентификатор : 6
Формат : UTF-8
Идентификатор кодека : S_TEXT/UTF8
Идентификатор кодека/Информация : UTF-8 Plain Text
Продолжительность : 1 ч. 42 м.
Битрейт : 84 бит/сек
ElementCount : 1226
Размер потока : 63,5 Кбайт (0%)
Заголовок : full
Язык : Russian
Default : Нет
Forced : Нет

Текст #3
Идентификатор : 7
Формат : UTF-8
Идентификатор кодека : S_TEXT/UTF8
Идентификатор кодека/Информация : UTF-8 Plain Text
Продолжительность : 1 ч. 42 м.
Битрейт : 54 бит/сек
ElementCount : 1251
Размер потока : 40,6 Кбайт (0%)
Заголовок : full
Язык : English
Default : Нет
Forced : Нет

Текст #4
Идентификатор : 8
Формат : UTF-8
Идентификатор кодека : S_TEXT/UTF8
Идентификатор кодека/Информация : UTF-8 Plain Text
Продолжительность : 1 ч. 43 м.
Битрейт : 60 бит/сек
ElementCount : 1436
Размер потока : 45,5 Кбайт (0%)
Заголовок : SDH
Язык : English
Default : Нет
Forced : Нет

Меню
00:00:00.000 : en:Chapter 1
00:05:47.347 : en:Chapter 2
00:09:21.978 : en:Chapter 3
00:17:15.617 : en:Chapter 4
00:22:49.493 : en:Chapter 5
00:28:43.179 : en:Chapter 6
00:35:58.489 : en:Chapter 7
00:41:50.508 : en:Chapter 8
00:47:03.111 : en:Chapter 9
00:53:30.373 : en:Chapter 8
00:57:31.531 : en:Chapter 11
01:02:20.820 : en:Chapter 12
01:10:43.614 : en:Chapter 13
01:17:32.731 : en:Chapter 14
01:22:16.765 : en:Chapter 15
01:27:03.092 : en:Chapter 16
01:32:12.818 : en:Chapter 17
01:36:17.480 : en:Chapter 18
01:41:35.714 : en:Chapter 19
01:43:36.752 : en:Chapter 20



Скачать Судная ночь 3 через торрент https://b.radikal.ru/b20/1810/6e/b14bb01b849f.png Скачать, смотреть онлайн Судная ночь 3 бесплантно в хорошем качестве Описание: Добро пожаловать в идеальное будущее, в котором Судная ночь превратилась в международный тренд. Туристы со всего мира прибывают в ... 10 10 1
Торрент: Зарегистрирован [2019-12-27 01:57] · скачан: 17 раз
Статус: √ проверено
Размер: 52.75 GB
Как cкачать? Как скачать Судная ночь 3 через торрент | UTorrent

% Раздел Тема Автор DL S | L
Фильмы 2016 [DVDrip, WEB-DLRip, HDrip] (DUB, MVO) [ 1.46 GB ] Судная ночь 3 / The Purge: Election Year | Лицензия | BDRip Twi7ter Скачать
1 | 0
Фильмы (Blu-ray, BD-Remux, HDDVD) [ 35 GB ] Судная ночь 3 / The Purge: Election Year | Лицензия | 1080p Russian Mafia Скачать
1 | 0
Фильмы 2016 [DVDrip, WEB-DLRip, HDrip] (DUB, MVO) [ 1.46 GB ] Судная ночь 3 / The Purge: Election Year | Лицензия BD CEE | BDRip bober100 Скачать
1 | 0
Фильмы 2016 [DVDrip, WEB-DLRip, HDrip] (DUB, MVO) [ 748 MB ] Судная ночь 3 / The Purge: Election Year | Лицензия BD CEE | HDRip bober100 Скачать
1 | 0
Фильмы [HD 720p, 1080p] (Хороший звук DUB, MVO) [ 6.93 GB ] Судная ночь 3 / The Purge: Election Year | iTunes | 720p от potroks potroks Скачать
1 | 0
Фильмы без перевода [ 26.82 GB ] Судная ночь 3 / The Purge: Election Year | | BD Remux smaster Скачать
1 | 0
Фильмы 2016 [DVDrip, WEB-DLRip, HDrip] (DUB, MVO) [ 1.41 GB ] Судная ночь 3 / The Purge: Election Year | Лицензия | BDRip Twi7ter Скачать
1 | 0

28-11-2019 20:33  


Отключить вcю реклaмy на сайте, в т.ч. и в плеере онлайн просмотра!

    Дорогой пользователь! Огромная просьба, поблагодарите релизера, оцените раздачу и оставьте свои комментарий, если Вы скачали Судная ночь 3 через торрент бесплатно!!
    Комментировать посты могут только пользователи прошедшие не сложную регистрацию
    Показать сообщения:    


    Судная ночь 3 через торрент
    Скачать бесплатно Судная ночь 3
    Судная ночь 3 скачать торрент
    Судная ночь 3 смотреть онлайн
    Cкачать фильм Судная ночь 3 бесплатно
    Судная ночь 3 скачать торрент в хорошем качестве
    Судная ночь 3 смотреть онлайн бесплатно в хорошем качестве
    Вы не можете начинать темы
    Вы не можете отвечать на сообщения
    Вы не можете редактировать свои сообщения
    Вы не можете удалять свои сообщения
    Вы не можете голосовать в опросах
    Вы не можете прикреплять файлы к сообщениям
    Вы можете скачивать файлы
    Судная ночь 3 / The Purge: Election Year [2016, ужасы, фантастика, боевик, UHD BDRemux 2160p] Дубляж [Лицензия] + AVO [М. Яроцкий] смотреть онлайн, скачать торрент picoco.icu