Достать ножи: Стеклянная луковица

MVO

Добыча

Дубляж

Уэнсдэй

1 сезон

Тор

Дубляж

13 клиническая

1 сезон

Жестокая ночь

MVO

Одни из нас

1 сезон

Deluxe

pack

Рекомендуем

30

Пиратка

ВАЖНО

ВАЖНО

Ghostwire

Пиратка

jed

RePack

nioh2

RePack

RDR2

RePack

NEED FOR SPEED™ PAYBACK

RePack

скачать торрент

Кинопоиск HD

Острые козырьки 6 сезон

6 сезон

FAR CRY 6

RePack

скачать торрент

Лицензия

скачать торрент

MVO

1

1 сезон

скачать торрент

1 сезон

скачать торрент

Лицензия

  

Дело храбрых / Only the Brave (Джозеф Косински) [2017, драма, биография, UHD BDRemux 2160p] Дубляж - [iTunes]

Дело храбрых через торрент piratbit.org

Размер: 41.42 GB | Добавлен: 4 года 3 мес. назад | Торрент скачан:41 раз
Смотреть онлайн | Скачать | Поддержите нас   

24-10-2018 12:20 Дело храбрых Скачать торрент  

Дело храбрых / Only the Brave«It's Not What Stands In Front Of You, It's Who Stands Beside You»
Год выпуска: 2017
Страна: США
Жанр: драма, биография
Продолжительность: 02:14:03
Перевод: Дублированный | iTunes
Субтитры: Русские, английские
Режиссер: Джозеф Косински
В ролях:

Джош Бролин (Eric Marsh), Майлз Теллер (Brendan McDonough), Джефф Бриджес (Duane Steinbrink), Джеймс Бэдж Дэйл (Jesse Steed), Тейлор Китч (Christopher MacKenzie), Дженнифер Коннелли (Amanda Marsh), Скотт Хэйз (Clayton Whitted), Алекс Расселл (Andrew Ashcraft), Бен Харди (Wade Parker), Натали Холл (Natalie Johnson), Энди МакДауэлл (Marvel Steinbrink), Джофф Стульц (Travis Turbyfill)
Описание:
История о команде пожарных под названием Granite Mountain Hotshots, столкнувшихся в Аризоне с одним из самых смертоносных пожаров в истории.
Рейтинг:

MPAA: PG-13 - Детям до 13 лет просмотр не желателен
Качество: UHD BDRemux 2160p
Формат: MKV
Видео: HEVC, HDR, 40.0 Мбит/с, 3840x2160
Аудио #1: Русский (AC3, 6 ch, 384 Кбит/с)
Аудио #2: Английский (AC3, 6 ch, 640 Кбит/с)
Аудио #3: Английский (TrueHD+Atmos, 8 ch, 3116 Кбит/с)
Навигация по главам: есть
General
Unique ID : 70613302394134446164682032198786357561 (0x351FA09A5B444E8C338AA445C2DA1939)
Complete name : D:\Video111\Only.the.Brave.2017.2160p.UHD.BDRemux.TeamHD.mkv
Format : Matroska
Format version : Version 4
File size : 41.4 GiB
Duration : 2 h 14 min
Overall bit rate mode : Variable
Overall bit rate : 44.2 Mb/s
Movie name : Only the Brave (2017) 4K TeamHD-селезень
Encoded date : UTC 2018-10-24 10:59:55
Writing application : mkvmerge v28.0.0 ('Voice In My Head') 64-bit
Writing library : libebml v1.3.6 + libmatroska v1.4.9
Cover : Yes
Attachments : small_cover_land.jpg / cover.jpg / cover_land.jpg / small_cover.jpg

Video
ID : 1
Format : HEVC
Format/Info : High Efficiency Video Coding
Commercial name : HDR10
Format profile : Main 10@L5.1@High
Codec ID : V_MPEGH/ISO/HEVC
Duration : 2 h 14 min
Bit rate : 40.0 Mb/s
Width : 3 840 pixels
Height : 2 160 pixels
Display aspect ratio : 16:9
Frame rate mode : Constant
Frame rate : 23.976 (24000/1001) FPS
Color space : YUV
Chroma subsampling : 4:2:0 (Type 2)
Bit depth : 10 bits
Bits/(Pixel*Frame) : 0.201
Stream size : 37.5 GiB (90%)
Language : English
Default : Yes
Forced : No
Color range : Limited
Color primaries : BT.2020
Transfer characteristics : PQ
Matrix coefficients : BT.2020 non-constant
Mastering display color pri : BT.2020
Mastering display luminance : min: 0.0050 cd/m2, max: 4000 cd/m2
Maximum Content Light Level : 5352 cd/m2
Maximum Frame-Average Light : 301 cd/m2

Audio #1
ID : 2
Format : AC-3
Format/Info : Audio Coding 3
Commercial name : Dolby Digital
Codec ID : A_AC3
Duration : 2 h 13 min
Bit rate mode : Constant
Bit rate : 384 kb/s
Channel(s) : 6 channels
Channel layout : L R C LFE Ls Rs
Sampling rate : 48.0 kHz
Frame rate : 31.250 FPS (1536 SPF)
Bit depth : 16 bits
Compression mode : Lossy
Stream size : 368 MiB (1%)
Title : Дубляж [iTunes]
Language : Russian
Service kind : Complete Main
Default : Yes
Forced : Yes

Audio #2
ID : 3
Format : MLP FBA 16-ch
Format/Info : Meridian Lossless Packing FBA with 16-channel presentation
Commercial name : Dolby TrueHD with Dolby Atmos
Codec ID : A_TRUEHD
Duration : 2 h 14 min
Bit rate mode : Variable
Bit rate : 3 116 kb/s
Maximum bit rate : 5 568 kb/s
Channel(s) : 8 channels
Channel layout : L R C LFE Ls Rs Lb Rb
Sampling rate : 48.0 kHz
Frame rate : 1 200.000 FPS (40 SPF)
Compression mode : Lossless
Stream size : 2.92 GiB (7%)
Title : Original
Language : English
Default : No
Forced : No
Number of dynamic objects : 13
Bed channel count : 1 channel
Bed channel configuration : LFE

Audio #3
ID : 4
Format : AC-3
Format/Info : Audio Coding 3
Commercial name : Dolby Digital
Codec ID : A_AC3
Duration : 2 h 14 min
Bit rate mode : Constant
Bit rate : 640 kb/s
Channel(s) : 6 channels
Channel layout : L R C LFE Ls Rs
Sampling rate : 48.0 kHz
Frame rate : 31.250 FPS (1536 SPF)
Bit depth : 16 bits
Compression mode : Lossy
Stream size : 614 MiB (1%)
Language : English
Service kind : Complete Main
Default : No
Forced : No

Text #1
ID : 5
Format : UTF-8
Codec ID : S_TEXT/UTF8
Codec ID/Info : UTF-8 Plain Text
Duration : 2 h 3 min
Bit rate : 89 b/s
Count of elements : 1888
Stream size : 80.8 KiB (0%)
Title : Full
Language : Russian
Default : No
Forced : No

Text #2
ID : 6
Format : UTF-8
Codec ID : S_TEXT/UTF8
Codec ID/Info : UTF-8 Plain Text
Duration : 2 h 3 min
Bit rate : 64 b/s
Count of elements : 1894
Stream size : 58.7 KiB (0%)
Title : Full
Language : English
Default : No
Forced : No

Text #3
ID : 7
Format : UTF-8
Codec ID : S_TEXT/UTF8
Codec ID/Info : UTF-8 Plain Text
Duration : 2 h 9 min
Bit rate : 72 b/s
Count of elements : 2262
Stream size : 68.5 KiB (0%)
Title : SDH
Language : English
Default : No
Forced : No

Menu
00:00:00.000 : en:Chapter 1
00:11:25.560 : en:Chapter 2
00:20:29.770 : en:Chapter 3
00:30:52.059 : en:Chapter 4
00:40:36.517 : en:Chapter 5
00:50:10.549 : en:Chapter 6
01:01:16.965 : en:Chapter 7
01:11:59.440 : en:Chapter 8
01:21:32.096 : en:Chapter 9
01:30:43.355 : en:Chapter 10
01:40:27.230 : en:Chapter 11
01:50:22.199 : en:Chapter 12
01:59:38.046 : en:Chapter 13
02:09:37.645 : en:Chapter 14



Скачать Дело храбрых через торрент https://c.radikal.ru/c22/1810/cf/9b456e1c1642.png Скачать, смотреть онлайн Дело храбрых бесплантно в хорошем качестве Описание: История о команде пожарных под названием Granite Mountain Hotshots, столкнувшихся в Аризоне с одним из самых смертоносных пожаров ... 10 10 2
Торрент: Зарегистрирован [2018-10-24 12:20] · скачан: 41 раз
Статус: √ проверено
Размер: 41.42 GB
Как cкачать? Как скачать Дело храбрых через торрент | UTorrent

% Раздел Тема Автор DL S | L
Фильмы 2017 [DVDrip, WEB-DLRip, HDrip] (DUB, MVO) [ 1.46 GB ] Дело храбрых / Only the Brave | Лицензия | BDRip Twi7ter Скачать
1 | 0
Фильмы [HD 720p, 1080p] (Хороший звук DUB, MVO) [ 5.42 GB ] Дело храбрых / Only the Brave | iTunes | 1080p, HEVC (10bit Мичман37 Скачать
1 | 0
Ultra HD (UHD: 2K, 4K, 8K) [ 47.24 GB ] Дело храбрых / Only the Brave | iTunes | 2160p bober100 Скачать
1 | 0
Ultra HD (UHD: 2K, 4K, 8K) [ 53.63 GB ] Дело храбрых / Only the Brave | iTunes | 2160p sheker187 Скачать
1 | 0
Ultra HD (UHD: 2K, 4K, 8K) [ 14.49 GB ] Дело храбрых / Only the Brave | iTunes | 2160p bober100 Скачать
1 | 0
Фильмы (Blu-ray, BD-Remux, HDDVD) [ 25.75 GB ] Дело храбрых / Only the Brave | iTunes | BD Remux 1080p bober100 Скачать
1 | 0
Фильмы 2017 [DVDrip, WEB-DLRip, HDrip] (DUB, MVO) [ 2.12 GB ] Дело храбрых / Only the Brave | Лицензия | BDRip Twi7ter Скачать
1 | 0

28-11-2019 20:33  


Отключить вcю реклaмy на сайте, в т.ч. и в плеере онлайн просмотра!

    Дорогой пользователь! Огромная просьба, поблагодарите релизера, оцените раздачу и оставьте свои комментарий, если Вы скачали Дело храбрых через торрент бесплатно!!
    Комментировать посты могут только пользователи прошедшие не сложную регистрацию
    Показать сообщения:    


    Дело храбрых через торрент
    Скачать бесплатно Дело храбрых
    Дело храбрых скачать торрент
    Дело храбрых смотреть онлайн
    Cкачать фильм Дело храбрых бесплатно
    Дело храбрых скачать торрент в хорошем качестве
    Дело храбрых смотреть онлайн бесплатно в хорошем качестве
    Вы не можете начинать темы
    Вы не можете отвечать на сообщения
    Вы не можете редактировать свои сообщения
    Вы не можете удалять свои сообщения
    Вы не можете голосовать в опросах
    Вы не можете прикреплять файлы к сообщениям
    Вы можете скачивать файлы
    Дело храбрых / Only the Brave [2017, драма, биография, UHD BDRemux 2160p] Дубляж - [iTunes] смотреть онлайн, скачать торрент picoco.icu