2 сезон

iTunes

WEBRip

1

2 сезон

iTunes

1 сезон

1 сезон

RePack

30

Новинка

ВАЖНО

ИГРА 18+

pack

RePack

MK11
pack

Легкие деньги

RePack

jed

RePack

fifa19

RePack

RDR2

RePack

NEED FOR SPEED™ PAYBACK

4 сезон

9 сезон

Бесстыжие 9 сезон

Все сериалы

все сериалы на PB.wtf

RePack

FAR CRY 5

Anonymous, доброй ночи, мы не успеваем собрать деньги на оплату серверов за февраль, помогите нам пожалуйста в это трудное время. В качестве благодарности мы отключим Вам всю рекламу на сайте (укажите свой ник в строку Ваше имя)!

×
  
Magnet ссылка

22 мили / Mile 22 (Питер Берг) [2018, боевик, триллер, WEBRip 720p] [Ukr DUB] piratbit.org

22 мили через торрент piratbit.org

Размер: 2.45 GB | Добавлен: 2 года 4 мес. назад | Торрент скачан:97 раз
Скачать  

25-10-2018 14:43 22 мили Скачать торрент  



Год выпуска: 2018
Страна: США
Жанр: боевик, триллер
Продолжительность: 01:34:19
Перевод: Украинский (дублированный)
Субтитры: английские

Режиссер: Питер Берг

В ролях: Марк Уолберг, Лорен Кохэн, Ико Уайс, Джон Малкович, Ронда Раузи, Карло Альбан, Сиэль, Сэм Медина, Кит А. Болден

Описание: Призраки - элитный отряд сверхсекретной разведки: официально они не существуют, но на самом деле - реальны. Они решают задачи, когда старые методы уже не работают, и всегда добиваются поставленной цели. Суперагенту отряда при поддержке ЦРУ предстоит непростая миссия: тайно вывести из Индонезии полицейского, владеющего доказательствами коррупции в высших политических кругах. До спасительного самолета им предстоит преодолеть 22 смертельно опасные мили.



Качество: WEBRip 720p
Формат видео: MKV
Видео кодек: AVC
Аудио кодек: AC3
Видео: 1280x534, 25.000 fps, ~3131 kbps avg
Аудио 1: 48 kHz, AC3 Dolby Digital, 2/0 (L,R) ch, ~256 kbps - Ukr DUB
Аудио 2: 48 kHz, AC3 Dolby Digital, 2/0 (L,R) ch, ~256 kbps - Eng
General
Unique ID : 281132046081098048655142236294238559859 (0xD3801005BB10AFF28A97ADF7811DDE73)
Complete name : E:\22 myli 720p.WEBRipAVC Ukr_Eng Sub Eng.mkv
Format : Matroska
Format version : Version 4 / Version 2
File size : 2.45 GiB
Duration : 1 h 34 min
Overall bit rate : 3 717 kb/s
Encoded date : UTC 2018-10-24 07:01:04
Writing application : mkvmerge v23.0.0 ('The Bride Said No') 32-bit
Writing library : libebml v1.3.6 + libmatroska v1.4.9

Video
ID : 1
Format : AVC
Format/Info : Advanced Video Codec
Format profile : Main@L3.1
Format settings : CABAC / 2 Ref Frames
Format settings, CABAC : Yes
Format settings, RefFrames : 2 frames
Codec ID : V_MPEG4/ISO/AVC
Duration : 1 h 34 min
Bit rate : 3 131 kb/s
Width : 1 280 pixels
Height : 534 pixels
Display aspect ratio : 2.40:1
Frame rate mode : Constant
Frame rate : 25.000 FPS
Color space : YUV
Chroma subsampling : 4:2:0
Bit depth : 8 bits
Scan type : Progressive
Bits/(Pixel*Frame) : 0.183
Stream size : 2.06 GiB (84%)
Default : Yes
Forced : No

Audio #1
ID : 2
Format : AC-3
Format/Info : Audio Coding 3
Format settings, Endianness : Big
Codec ID : A_AC3
Duration : 1 h 34 min
Bit rate mode : Constant
Bit rate : 256 kb/s
Channel(s) : 2 channels
Channel positions : Front: L R
Sampling rate : 48.0 kHz
Frame rate : 31.250 FPS (1536 SPF)
Bit depth : 16 bits
Compression mode : Lossy
Stream size : 173 MiB (7%)
Title : Line in
Language : Ukrainian
Service kind : Complete Main
Default : Yes
Forced : Yes

Audio #2
ID : 3
Format : AC-3
Format/Info : Audio Coding 3
Format settings, Endianness : Big
Codec ID : A_AC3
Duration : 1 h 34 min
Bit rate mode : Constant
Bit rate : 256 kb/s
Channel(s) : 2 channels
Channel positions : Front: L R
Sampling rate : 48.0 kHz
Frame rate : 31.250 FPS (1536 SPF)
Bit depth : 16 bits
Compression mode : Lossy
Stream size : 173 MiB (7%)
Title : original
Language : English
Service kind : Complete Main
Default : No
Forced : No

Text
ID : 4
Format : UTF-8
Codec ID : S_TEXT/UTF8
Codec ID/Info : UTF-8 Plain Text
Language : English
Default : No
Forced : No
скриншот   скриншот   скриншот  
piratbit.org



Скачать 22 мили через торрент https://i94.fastpic.ru/big/2018/1025/e8/614198adc0b4fca3a21d8b77936061e8.jpg Скачать фильм 22 мили через торрент бесплантно в хорошем качестве Описание: Призраки - элитный отряд сверхсекретной разведки: официально они не существуют, но на самом деле - реальны. Они решают задачи, ... 8.6 10 5
Торрент: Зарегистрирован [2018-10-25 14:43] · скачан: 97 раз
Статус: T временная
Размер: 2.45 GB
Как cкачать? Как скачать 22 мили через торрент | UTorrent

% Раздел Тема Автор DL S | L
Фильмы (WEB-DL 720p, 1080p) [ 3.27 GB ] 22 мили / Mile 22 [2018 WEB-DL 1080p] bober100 Скачать
5 | 0
Фильмы [HD 720p, 1080p] (Хороший звук DUB, MVO) [ 9.08 GB ] 22 мили / Mile 22 [2018 BDRip 1080p] DUB [ BD RUS] + AVO [Михаил Яроцкий] sheker187 Скачать
2 | 0
Фильмы 2018 [DVDrip, WEB-DLRip, HDrip] (DUB, MVO) [ 1.46 GB ] 22 мили / Mile 22 [2018 BDRip] - [] Twi7ter Скачать
2 | 0
Фильмы [HD 720p, 1080p] (Хороший звук DUB, MVO) [ 5.48 GB ] 22 мили / Mile 22 [2018 BDRip 720p] DUB [] bober100 Скачать
1 | 0
Фильмы (Blu-ray, BD-Remux, HDDVD) [ 25 GB ] 22 мили / Mile 22 [2018 BD Remux 1080p] [CAN Transfer] DUB [] bober100 Скачать
1 | 0
Фильмы [HD 720p, 1080p] (Хороший звук DUB, MVO) [ 8.78 GB ] 22 мили / Mile 22 [2018 BDRip 1080p] DUB [] bober100 Скачать
2 | 0
Фильмы 2018 [DVDrip, WEB-DLRip, HDrip] (DUB, MVO) [ 1.57 GB ] 22 мили / Mile 22 [2018 BDRip-AVC] DUB [] bober100 Скачать
1 | 0

28-11-2019 20:33  

Отключить всю рекламу на сайте

08-01-2019 17:58 22 мили Скачать торрент  

Спасибо за Украинский дубляж!piratbit.org



    Дорогой пользователь! Огромная просьба, поблагодарите релизера, оцените раздачу и оставьте свои комментарий, если Вы скачали 22 мили через торрент бесплатно! Внесите свою лепту в развитие PiratBit!
    Комментировать посты могут только пользователи прошедшие не сложную регистрацию
    Показать сообщения:    

    22 мили через торрент
    Скачать бесплатно 22 мили
    22 мили скачать торрент
    22 мили смотреть онлайн
    Cкачать фильм 22 мили бесплатно
    22 мили скачать торрент в хорошем качестве
    22 мили смотреть онлайн бесплатно в хорошем качестве


    Вы не можете начинать темы
    Вы не можете отвечать на сообщения
    Вы не можете редактировать свои сообщения
    Вы не можете удалять свои сообщения
    Вы не можете голосовать в опросах
    Вы не можете прикреплять файлы к сообщениям
    Вы можете скачивать файлы