Ссылка на приватное зеркало нашего сайта всего за 1$. Внимание количество ограничено!!!

2 сезон

iTunes

iTunes

1

iTunes

iTunes

iTunes

WEBRip

iTunes

30
pack

Вам бонус

ВАЖНО

!!Акция!!

Alien_RageХит недели

RePack

Horizon Zero Dawn

ИГРА 18+

pack

RePack

jed

!!Акция!!

Alien_Rage

RePack

fifa19

RePack

Assassins Creed: Odyssey

RePack

NEED FOR SPEED™ PAYBACK

4 сезон

9 сезон

Бесстыжие 9 сезон

Все сериалы

все сериалы на PB.wtf

RePack

FAR CRY 5
  

Сказки на ночь / Bedtime Stories (Адам Шенкман) [2008 г., фэнтези, комедия, мелодрама, семейный, BDRip] DUB [Лицензия] piratbit.org

Сказки на ночь через торрент piratbit.org

Размер: 2.18 GB | Добавлен: 1 год 10 мес. назад | Торрент скачан:66 раз
Скачать  

25-10-2018 21:39 Сказки на ночь Скачать торрент  

Сказки на ночь / Bedtime Stories
Год выпуска: 2008
Страна: США
Жанр: Фэнтези, комедия, мелодрама, семейный
Продолжительность: 01:39:14
Перевод: Дубляж Лицензия
Субтитры: Русские, английские (отдельным файлом)

Режиссер: Адам Шенкман

rating

В ролях: Адам Сэндлер, Кери Расселл, Гай Пирс, Расселл Брэнд, Ричард Гриффитс, Тереза Палмер, Люси Лоулесс, Кортни Кокс, Джонатан Морган Хейт, Лаура Энн Кеслинг

Описание: В жизни главного героя Скитера Бронсона никогда не случалось ничего удивительного. Но однажды сестра попросила его присмотреть за двумя очаровательными и неугомонными племянниками и одной симпатичной морской свинкой по имени Плаксик. Все трое привыкли засыпать под мамины сказки, и Скитеру пришлось каждый вечер придумывать невероятные истории для своей веселой семейки. И вдруг происходит чудо: события сказки, рассказанной детям на ночь, начали сбываться на следующий день в жизни самого Скитера!
Качество: BDRip
Формат: AVI
Видео кодек: XviD
Аудио кодек: AC3
Видео: XviD, 2235 Kбит/с, 720x304
Аудио#1: Русский, AC3, 6 ch, 448 Кбит/с
Аудио#2: Английский, AC3, 6 ch, 448 Кбит/с
Видео
Идентификатор : 0
Формат : MPEG-4 Visual
Профиль формата : Advanced Simple@L5
Настройки формата : BVOP1
Параметр BVOP формата : 1
Параметр QPel формата : Нет
Параметр GMC формата : Без точки перехода
Параметр матрицы формата : Default (MPEG)
Идентификатор кодека : XVID
Идентификатор кодека/Подсказка : XviD
Продолжительность : 1 ч. 39 м.
Битрейт : 2235 Кбит/сек
Ширина : 720 пикселей
Высота : 304 пикселя
Соотношение сторон : 16:9
Соотношение сторон в оригинале : 2,35:1
Частота кадров : 23,976 (24000/1001) кадра/сек
Цветовое пространство : YUV
Субдискретизация насыщенности : 4:2:0
Битовая глубина : 8 бит
Тип развёртки : Прогрессивная
Метод сжатия : С потерями
Бит/(Пиксели*Кадры) : 0.426
Размер потока : 1,55 Гбайт (71%)
Библиотека кодирования : XviD 1.2.1 (UTC 2008-12-04)

Аудио #1
Идентификатор : 1
Формат : AC-3
Формат/Информация : Audio Coding 3
Идентификатор кодека : 2000
Продолжительность : 1 ч. 39 м.
Вид битрейта : Постоянный
Битрейт : 448 Кбит/сек
Каналы : 6 каналов
Расположение каналов : Front: L C R, Side: L R, LFE
Частота : 48,0 КГц
Частота кадров : 31,250 кадров/сек (1536 SPF)
Битовая глубина : 16 бит
Метод сжатия : С потерями
Размер потока : 318 Мбайт (14%)
Выравнивание : Разделение по промежуткам
Продолжительность промежутка : 42 мс. (1,00 видеокадр)
Время предзагрузки промежутка : 500 мс.
ServiceKind/String : Complete Main

Аудио #2
Идентификатор : 2
Формат : AC-3
Формат/Информация : Audio Coding 3
Идентификатор кодека : 2000
Продолжительность : 1 ч. 39 м.
Вид битрейта : Постоянный
Битрейт : 448 Кбит/сек
Каналы : 6 каналов
Расположение каналов : Front: L C R, Side: L R, LFE
Частота : 48,0 КГц
Частота кадров : 31,250 кадров/сек (1536 SPF)
Битовая глубина : 16 бит
Метод сжатия : С потерями
Размер потока : 318 Мбайт (14%)
Выравнивание : Разделение по промежуткам
Продолжительность промежутка : 42 мс. (1,00 видеокадр)
Время предзагрузки промежутка : 500 мс.
ServiceKind/String : Complete Main

скриншот   скриншот   скриншот   скриншот   скриншот  

piratbit.org



Скачать Сказки на ночь через торрент http://pic1.kartinco.top/images/11/osjlp.jpg Скачать фильм Сказки на ночь через торрент бесплантно в хорошем качестве Описание: В жизни главного героя Скитера Бронсона никогда не случалось ничего удивительного. Но однажды сестра попросила его присмотреть за ... 10 10 2
Торрент: Зарегистрирован [2018-10-25 21:39] · скачан: 66 раз
Статус: √ проверено
Размер: 2.18 GB
Как cкачать? Как скачать Сказки на ночь через торрент | qTorrent

% Раздел Тема Автор DL S | L
Фильмы [HD 720p, 1080p] (Хороший звук DUB, MVO) [ 4.68 GB ] Сказки на ночь / Bedtime Stories [2008 BDRip] [720p] Курортник Скачать
1 | 0
Порно фильмы HD [ 4.04 GB ] Сказки На Ночь 3 / Bedtime Stories 3 [2013 Glamour Straight Sex Feature WEB-DLRip 720p Оригинал] 19alexei87 Скачать
1 | 0
Порно фильмы с сюжетом [ 1.51 GB ] Сказки На Ночь # 3 / Bedtime Stories # 3 [2013 Glamour Straight Sex Feature WEB-DLRip Оригинал] 19alexei87 Скачать
1 | 0
Порно фильмы с сюжетом [ 840 MB ] Сказки на ночь / Bedtime Stories [2013 Feature Couples Vignettes PornStars DVDRip-AVC Оригинал] sheker187 Скачать
1 | 0
Порно фильмы с сюжетом [ 732 MB ] Сказки На Ночь 2 / Bedtime Stories 2 [2013 Feature Straight Sex Glamour DVDRip-AVC Оригинал] sheker187 Скачать
1 | 0
Лесбиянки [ 743 MB ] Девушки Трутся О Девушек 2. Сказка На Ночь / Girls Tribbing Girls 2. Bedtime Story Trib [2013 Lesbians Interracial Natural Breasts Big Tits Black. DVDRip Оригинал] Pir@tya2010 Скачать
1 | 0
Фильмы 2006-2008 [ 1.37 GB ] Сказки на ночь / Bedtime Stories [2008 HDRip лицензия] Lil Badun Скачать
1 | 0

28-11-2019 20:33  

Отключить всю рекламу на сайте

    Дорогой пользователь! Огромная просьба, поблагодарите релизера, оцените раздачу и оставьте свои комментарий, если Вы скачали Сказки на ночь через торрент бесплатно! Внесите свою лепту в развитие PiratBit!
    Комментировать посты могут только пользователи прошедшие не сложную регистрацию
    Показать сообщения:    

    Сказки на ночь через торрент
    Скачать бесплатно Сказки на ночь
    Сказки на ночь скачать торрент
    Сказки на ночь смотреть онлайн
    Cкачать фильм Сказки на ночь бесплатно
    Сказки на ночь скачать торрент в хорошем качестве
    Сказки на ночь смотреть онлайн бесплатно в хорошем качестве


    Вы не можете начинать темы
    Вы не можете отвечать на сообщения
    Вы не можете редактировать свои сообщения
    Вы не можете удалять свои сообщения
    Вы не можете голосовать в опросах
    Вы не можете прикреплять файлы к сообщениям
    Вы можете скачивать файлы