Достать ножи: Стеклянная луковица

MVO

Добыча

Дубляж

Уэнсдэй

1 сезон

Тор

Дубляж

13 клиническая

1 сезон

Жестокая ночь

MVO

Одни из нас

1 сезон

Deluxe

pack

Рекомендуем

30

Пиратка

ВАЖНО

ВАЖНО

Ghostwire

Пиратка

jed

RePack

nioh2

RePack

RDR2

RePack

NEED FOR SPEED™ PAYBACK

RePack

скачать торрент

Кинопоиск HD

Острые козырьки 6 сезон

6 сезон

FAR CRY 6

RePack

скачать торрент

Лицензия

скачать торрент

MVO

1

1 сезон

скачать торрент

1 сезон

скачать торрент

Лицензия

  

Матрица: Революция / The Matrix Revolutions (Лана Вачовски, Лилли Вачовски) [2003, фантастика, боевик, UHD BDRemux 2160p] Дубляж + MVO + DVO + 2xAVO

Матрица: Революция через торрент piratbit.org

Размер: 60.53 GB | Добавлен: 4 года 3 мес. назад | Торрент скачан:116 раз
Смотреть онлайн | Скачать | Поддержите нас   

27-10-2018 11:31 Матрица: Революция Скачать торрент  

Матрица: Революция / The Matrix Revolutions«Все, что имеет начало, имеет и конец»
Год выпуска: 2003
Страна: Австралия, США
Жанр: фантастика, боевик
Продолжительность: 02:09:15
Перевод: Дублированный, профессиональный многоголосый, профессиональный двухголосый, авторский
Субтитры: Русские, английские
Режиссер: Лана Вачовски , Лилли Вачовски
В ролях:

Киану Ривз (Neo), Хьюго Уивинг (Agent Smith), Кэрри-Энн Мосс (Trinity), Лоренс Фишбёрн (Morpheus), Хэролд Перрино (Link), Джина Торрес (Cas), Джада Пинкетт Смит (Niobe), Моника Беллуччи (Persephone), Гарри Дж. Ленникс (Lock), Мэри Элис (The Oracle), Брюс Спенс (Trainman), Нэтаниэл Лис (Mifune)
Описание:
Пока армия Машин пытается уничтожить Зион, его жители из последних сил держат оборону. Но удастся ли им предотвратить полное вторжение в город кишащей орды беспощадных машин до того, как Нео соберет все свои силы и положит конец войне?
Рейтинг:

MPAA: R - Лицам до 17 лет обязательно присутствие взрослого
Качество: UHD BDRemux 2160p
Формат: MKV
Видео: HEVC HDR, 51.2 Mбит/с, 3840x2160, 23.976 кадр/с
Аудио 1: Русский (AC3, 6 ch, 640 Кбит/с) / Дублированный (Blu-Ray EUR)
Аудио 2: Русский (DTS-HD MA, 6 ch, 2331 Кбит/с) / Дублированный (Kinоton)
Аудио 3: Русский (DTS-HD MA, 6 ch, 2430 Кбит/с) / Профессиональный многоголосый
Аудио 4: Русский (DTS-HD MA, 6 ch, 2428 Кбит/с) / Профессиональный двухголосый (П. Гланц и И. Королёва)
Аудио 5: Русский (DTS-HD MA, 6 ch, 2428 Кбит/с) / Авторский (А.Гаврилов)
Аудио 6: Русский (DTS, 6 ch, 1509 Кбит/с) / Авторский (Ю. Живов)
Навигация по главам: Есть
General
Unique ID : 268454649788284515330731520748644458171 (0xC9F67C20AF35B4E3E2422D545F8FDEBB)
Complete name : C:\Users\Public\Videos\Sample Videos\Filmy\The.Matrix.Revolutions.2003.BDRemux.2160p.HDR.MediaClub.mkv
Format : Matroska
Format version : Version 4
File size : 60.5 GiB
Duration : 2 h 9 min
Overall bit rate mode : Variable
Overall bit rate : 67.0 Mb/s
Encoded date : UTC 2018-10-27 09:23:00
Writing application : mkvmerge v28.2.0 ('The Awakening') 64-bit
Writing library : libebml v1.3.6 + libmatroska v1.4.9
Cover : Yes
Attachments : cover.jpg

Video
ID : 1
Format : HEVC
Format/Info : High Efficiency Video Coding
Commercial name : HDR10
Format profile : Main 10@L5.1@High
Codec ID : V_MPEGH/ISO/HEVC
Duration : 2 h 9 min
Bit rate : 51.2 Mb/s
Width : 3 840 pixels
Height : 2 160 pixels
Display aspect ratio : 16:9
Frame rate mode : Constant
Frame rate : 23.976 (24000/1001) FPS
Color space : YUV
Chroma subsampling : 4:2:0 (Type 2)
Bit depth : 10 bits
Bits/(Pixel*Frame) : 0.258
Stream size : 46.2 GiB (76%)
Title : BDRemux.2160p.HDR by Silverok
Default : Yes
Forced : No
Color range : Limited
Color primaries : BT.2020
Transfer characteristics : PQ
Matrix coefficients : BT.2020 non-constant
Mastering display color primaries : BT.2020
Mastering display luminance : min: 0.0001 cd/m2, max: 1000 cd/m2
Maximum Content Light Level : 996 cd/m2
Maximum Frame-Average Light Level : 249 cd/m2

Audio #1
ID : 2
Format : AC-3
Format/Info : Audio Coding 3
Commercial name : Dolby Digital
Codec ID : A_AC3
Duration : 2 h 9 min
Bit rate mode : Constant
Bit rate : 640 kb/s
Channel(s) : 6 channels
Channel layout : L R C LFE Ls Rs
Sampling rate : 48.0 kHz
Frame rate : 31.250 FPS (1536 SPF)
Bit depth : 16 bits
Compression mode : Lossy
Stream size : 592 MiB (1%)
Title : Дублированный (Blu-Ray EUR)
Language : Russian
Service kind : Complete Main
Default : Yes
Forced : No

Audio #2
ID : 3
Format : DTS XLL
Format/Info : Digital Theater Systems
Commercial name : DTS-HD Master Audio
Codec ID : A_DTS
Duration : 2 h 9 min
Bit rate mode : Variable
Bit rate : 2 331 kb/s
Channel(s) : 6 channels
Channel layout : C L R Ls Rs LFE
Sampling rate : 48.0 kHz
Frame rate : 93.750 FPS (512 SPF)
Bit depth : 16 bits
Compression mode : Lossless
Delay relative to video : 40 ms
Stream size : 2.10 GiB (3%)
Title : Дублированный (Kinоton)
Language : Russian
Default : No
Forced : No

Audio #3
ID : 4
Format : DTS XLL
Format/Info : Digital Theater Systems
Commercial name : DTS-HD Master Audio
Codec ID : A_DTS
Duration : 2 h 9 min
Bit rate mode : Variable
Bit rate : 2 430 kb/s
Channel(s) : 6 channels
Channel layout : C L R Ls Rs LFE
Sampling rate : 48.0 kHz
Frame rate : 93.750 FPS (512 SPF)
Bit depth : 16 bits
Compression mode : Lossless
Delay relative to video : 40 ms
Stream size : 2.19 GiB (4%)
Title : Профессиональный многоголосый
Language : Russian
Default : No
Forced : No

Audio #4
ID : 5
Format : DTS XLL
Format/Info : Digital Theater Systems
Commercial name : DTS-HD Master Audio
Codec ID : A_DTS
Duration : 2 h 9 min
Bit rate mode : Variable
Bit rate : 2 428 kb/s
Channel(s) : 6 channels
Channel layout : C L R Ls Rs LFE
Sampling rate : 48.0 kHz
Frame rate : 93.750 FPS (512 SPF)
Bit depth : 16 bits
Compression mode : Lossless
Delay relative to video : 40 ms
Stream size : 2.19 GiB (4%)
Title : Профессиональный двухголосый (П. Гланц и И. Королёва)
Language : Russian
Default : No
Forced : No

Audio #5
ID : 6
Format : DTS XLL
Format/Info : Digital Theater Systems
Commercial name : DTS-HD Master Audio
Codec ID : A_DTS
Duration : 2 h 9 min
Bit rate mode : Variable
Bit rate : 2 428 kb/s
Channel(s) : 6 channels
Channel layout : C L R Ls Rs LFE
Sampling rate : 48.0 kHz
Frame rate : 93.750 FPS (512 SPF)
Bit depth : 16 bits
Compression mode : Lossless
Delay relative to video : 40 ms
Stream size : 2.19 GiB (4%)
Title : Авторский (А.Гаврилов)
Language : Russian
Default : No
Forced : No

Audio #6
ID : 7
Format : DTS
Format/Info : Digital Theater Systems
Codec ID : A_DTS
Duration : 2 h 9 min
Bit rate mode : Constant
Bit rate : 1 509 kb/s
Channel(s) : 6 channels
Channel layout : C L R Ls Rs LFE
Sampling rate : 48.0 kHz
Frame rate : 93.750 FPS (512 SPF)
Bit depth : 16 bits
Compression mode : Lossy
Delay relative to video : 40 ms
Stream size : 1.36 GiB (2%)
Title : Авторский (Ю. Живов)
Language : Russian
Default : No
Forced : No

Audio #7
ID : 10
Format : MLP FBA 16-ch
Format/Info : Meridian Lossless Packing FBA with 16-channel presentation
Commercial name : Dolby TrueHD with Dolby Atmos
Codec ID : A_TRUEHD
Duration : 2 h 9 min
Bit rate mode : Variable
Bit rate : 3 527 kb/s
Maximum bit rate : 6 264 kb/s
Channel(s) : 8 channels
Channel layout : L R C LFE Ls Rs Lb Rb
Sampling rate : 48.0 kHz
Frame rate : 1 200.000 FPS (40 SPF)
Compression mode : Lossless
Stream size : 3.18 GiB (5%)
Language : English
Default : No
Forced : No
Number of dynamic objects : 11
Bed channel count : 1 channel
Bed channel configuration : LFE

Audio #8
ID : 11
Format : AC-3
Format/Info : Audio Coding 3
Commercial name : Dolby Digital
Codec ID : A_AC3
Duration : 2 h 9 min
Bit rate mode : Constant
Bit rate : 448 kb/s
Channel(s) : 6 channels
Channel layout : L R C LFE Ls Rs
Sampling rate : 48.0 kHz
Frame rate : 31.250 FPS (1536 SPF)
Bit depth : 16 bits
Compression mode : Lossy
Stream size : 414 MiB (1%)
Language : English
Service kind : Complete Main
Default : No
Forced : No

Text #1
ID : 8
Format : UTF-8
Codec ID : S_TEXT/UTF8
Codec ID/Info : UTF-8 Plain Text
Duration : 2 h 8 min
Bit rate : 60 b/s
Count of elements : 1085
Stream size : 56.9 KiB (0%)
Title : Full
Language : Russian
Default : Yes
Forced : No

Text #2
ID : 9
Format : UTF-8
Codec ID : S_TEXT/UTF8
Codec ID/Info : UTF-8 Plain Text
Duration : 2 h 7 min
Bit rate : 39 b/s
Count of elements : 1110
Stream size : 37.5 KiB (0%)
Title : Full
Language : English
Default : No
Forced : No

Menu
00:00:00.000 : en:20 Hours to Go
00:03:55.401 : en:Trapped
00:07:33.119 : en:The Connection Matters
00:10:19.952 : en:Down Here I'm God
00:14:44.383 : en:Coat-Check Chaos
00:17:58.744 : en:Interesting Deal
00:23:33.245 : en:The End Is Coming
00:30:06.304 : en:We Meet at Last
00:35:35.633 : en:The Logos Found
00:39:34.205 : en:Volunteers
00:42:58.909 : en:I Believe in Him
00:46:43.300 : en:Nothing's Changed
00:49:02.606 : en:Stowaway
00:51:53.610 : en:See Your Enemy
00:58:00.643 : en:Give 'em Hell
01:00:19.115 : en:Detected
01:02:29.746 : en:Breaching the Dome
01:08:00.910 : en:Storming Sentinels
01:10:29.225 : en:Trying to Keep Up
01:14:33.802 : en:Unfinished Business
01:18:23.365 : en:Hell of a Pilot
01:23:08.984 : en:Report to the Council
01:25:55.817 : en:Believers
01:29:13.348 : en:Glimpse of the Sky
01:31:51.672 : en:Saying What Matters
01:36:51.472 : en:A Truce
01:41:55.275 : en:It Ends Tonight
01:44:53.120 : en:Urban Splash
01:48:06.646 : en:Neo's Choice
01:51:30.850 : en:Inevitable and Over
01:55:05.899 : en:Real Peace
01:57:31.210 : en:Freedom and Sunlight
02:00:12.371 : en:End Credits
02:09:13.745 : en:



Скачать Матрица: Революция через торрент https://c.radikal.ru/c31/1810/93/c2ffd7fdff7d.jpg Скачать, смотреть онлайн Матрица: Революция бесплантно в хорошем качестве Описание: Пока армия Машин пытается уничтожить Зион, его жители из последних сил держат оборону. Но удастся ли им предотвратить полное ... 10 10 5
Info! Золотая раздача, скачанное не засчитывается.
Торрент: Зарегистрирован [2018-10-27 11:31] · скачан: 116 раз
Статус: √ проверено
Размер: 60.53 GB
Как cкачать? Как скачать Матрица: Революция через торрент | UTorrent

28-11-2019 20:33  


Отключить вcю реклaмy на сайте, в т.ч. и в плеере онлайн просмотра!

    Дорогой пользователь! Огромная просьба, поблагодарите релизера, оцените раздачу и оставьте свои комментарий, если Вы скачали Матрица: Революция через торрент бесплатно!!
    Комментировать посты могут только пользователи прошедшие не сложную регистрацию
    Показать сообщения:    


    Матрица: Революция через торрент
    Скачать бесплатно Матрица: Революция
    Матрица: Революция скачать торрент
    Матрица: Революция смотреть онлайн
    Cкачать фильм Матрица: Революция бесплатно
    Матрица: Революция скачать торрент в хорошем качестве
    Матрица: Революция смотреть онлайн бесплатно в хорошем качестве
    Вы не можете начинать темы
    Вы не можете отвечать на сообщения
    Вы не можете редактировать свои сообщения
    Вы не можете удалять свои сообщения
    Вы не можете голосовать в опросах
    Вы не можете прикреплять файлы к сообщениям
    Вы можете скачивать файлы
    Матрица: Революция / The Matrix Revolutions [2003, фантастика, боевик, UHD BDRemux 2160p] Дубляж + MVO + DVO + 2xAVO смотреть онлайн, скачать торрент picoco.icu