Достать ножи: Стеклянная луковица

MVO

Добыча

Дубляж

Уэнсдэй

1 сезон

Тор

Дубляж

13 клиническая

1 сезон

Жестокая ночь

MVO

Одни из нас

1 сезон

Deluxe

pack

Рекомендуем

30

Пиратка

ВАЖНО

ВАЖНО

Ghostwire

Пиратка

jed

RePack

nioh2

RePack

RDR2

RePack

NEED FOR SPEED™ PAYBACK

RePack

скачать торрент

Кинопоиск HD

Острые козырьки 6 сезон

6 сезон

FAR CRY 6

RePack

скачать торрент

Лицензия

скачать торрент

MVO

1

1 сезон

скачать торрент

1 сезон

скачать торрент

Лицензия

  

Матрица: Перезагрузка / The Matrix Reloaded (Лана Вачовски, Лилли Вачовски) [2003, фантастика, боевик, UHD BDRip 2160p] Дубляж + MVO + 2xDVO + 4xAVO

Матрица: Перезагрузка через торрент piratbit.org

Размер: 41.43 GB | Добавлен: 4 года 3 мес. назад | Торрент скачан:85 раз
Смотреть онлайн | Скачать | Поддержите нас   

28-10-2018 01:44 Матрица: Перезагрузка Скачать торрент  

Матрица: Перезагрузка / The Matrix Reloaded«Одни машины помогают нам жить, другие – пытаются нас убить»
Год выпуска: 2003
Страна: США, Австралия
Жанр: фантастика, боевик
Продолжительность: 02:18.15
Перевод: Дублированный, профессиональный двухголосый, авторский
Субтитры: Русские, английские, испанские, французские, немецкие
Режиссер: Лана Вачовски , Лилли Вачовски
В ролях:

Киану Ривз (Neo), Лоренс Фишбёрн (Morpheus), Хьюго Уивинг (Agent Smith), Кэрри-Энн Мосс (Trinity), Джада Пинкетт Смит (Niobe), Глория Фостер (The Oracle), Хэролд Перрино (Link), Моника Беллуччи (Persephone), Ламбер Вильсон (Merovingian), Рэндолл Дак Ким (The Keymaker), Гарри Дж. Ленникс (Commander Lock), Энтони Цербе (Councillor Hamann)
Описание:
Борцы за свободу Нео, Тринити и Морфеус продолжают руководить восстанием людей против Армии Машин. Для уничтожения системы репрессий и эксплуатации они вынуждены прибегнуть не только к арсеналу превосходного оружия, но и к своим выдающимся навыкам.
Рейтинг:

MPAA: R - Лицам до 17 лет обязательно присутствие взрослого
Качество: UHD BDRip 2160p
Формат: MKV
Видео: HEVC, HDR, 30.4 Мбит/с, 3840x1600, 23.976 Кадр/с
Аудио №1: RUS 48 kHz, DTS, 3/2 (L,C,R,l,r) + LFE ch, ~1509 kbps avg | - Дубляж, Blu-Ray CEE
Аудио №2: RUS 48 kHz, DTS, 3/2 (L,C,R,l,r) + LFE ch, ~1509 kbps avg |- Двуголосый закадровый
Аудио №3: RUS 48 kHz, AC3, 2/0 (L,R) ch, ~192.00 kbps avg |-Многоголосый закадровый, SDI Media
Аудио №4: RUS 48 kHz, DTS, 3/2 (L,C,R,l,r) + LFE ch, ~1509 kbps avg |- Двуголосый закадровый, П.Гланц и И.Королёва(ранний)
Аудио №5: RUS 48 kHz, DTS, 3/2 (L,C,R,l,r) + LFE ch, ~1509 kbps avg |- Двуголосый закадровый, П.Гланц и И.Королёва(поздний)
Аудио №6: RUS 48 kHz, DTS, 3/2 (L,C,R,l,r) + LFE ch, ~1509 kbps avg | -Одноголосый закадровый, А.Гаврилов
Аудио №7: RUS 48 kHz, DTS, 3/2 (L,C,R,l,r) + LFE ch, ~1509 kbps avg | -Одноголосый закадровый, Ю.Живов
Аудио №8: RUS 48 kHz, DTS, 3/2 (L,C,R,l,r) + LFE ch, ~1509 kbps avg | -Одноголосый закадровый, Е. Рудой
Аудио №9: RUS 48 kHz, AC3, 2/0 (L,R) ch, ~192.00 kbps avg -Одноголосый закадровый, С.Визгунов
Аудио №10: ENG 48 kHz, DTS, 3/2 (L,C,R,l,r) + LFE ch, ~1509 kbps avg | -Оригинал
Навигация по главам: Есть
Complete name : I:\Movies\4K\The.Matrix.Reloaded.2003.2160p.UHD.BluRay.X265-ExKinoRay.mkv
Format : Matroska
Format version : Version 4 / Version 2
File size : 41.4 GiB
Duration : 2 h 18 min
Overall bit rate : 42.9 Mb/s
Movie name : UHD 2160 || Release by SpaceHD13
Encoded date : UTC 2018-10-28 12:19:07
Writing application : mkvmerge v27.0.0 ('Metropolis') 64-bit
Writing library : libebml v1.3.6 + libmatroska v1.4.9
Cover : Yes
Attachments : cover.png

Video
ID : 1
Format : HEVC
Format/Info : High Efficiency Video Coding
Commercial name : HDR10
Format profile : Main 10@L5.1@High
Codec ID : V_MPEGH/ISO/HEVC
Duration : 2 h 18 min
Bit rate : 30.4 Mb/s
Width : 3 840 pixels
Height : 1 600 pixels
Display aspect ratio : 2.40:1
Frame rate mode : Constant
Frame rate : 23.976 (24000/1001) FPS
Color space : YUV
Chroma subsampling : 4:2:0 (Type 2)
Bit depth : 10 bits
Bits/(Pixel*Frame) : 0.206
Stream size : 29.3 GiB (71%)
Title : The.Matrix.Reloaded.2003.2160p.UHD.BluRay.X265-ExKinoRay
Writing library : x265 2.8+10-703eade86b53:[Windows][GCC 8.1.0][64 bit] 10bit
Encoding settings : cpuid=1111039 / frame-threads=4 / numa-pools=16 / wpp / no-pmode / no-pme / no-psnr / no-ssim / log-level=2 / input-csp=1 / input-res=3840x1600 / interlace=0 / total-frames=198941 / level-idc=51 / high-tier=1 / uhd-bd=0 / ref=4 / no-allow-non-conformance / repeat-headers / annexb / aud / hrd / info / hash=0 / no-temporal-layers / no-open-gop / min-keyint=24 / keyint=240 / gop-lookahead=0 / bframes=4 / b-adapt=2 / b-pyramid / bframe-bias=0 / rc-lookahead=25 / lookahead-slices=4 / scenecut=40 / radl=0 / no-intra-refresh / ctu=64 / min-cu-size=8 / rect / no-amp / max-tu-size=32 / tu-inter-depth=1 / tu-intra-depth=1 / limit-tu=0 / rdoq-level=2 / dynamic-rd=0.00 / no-ssim-rd / signhide / no-tskip / nr-intra=0 / nr-inter=0 / no-constrained-intra / no-strong-intra-smoothing / max-merge=3 / limit-refs=3 / limit-modes / me=3 / subme=3 / merange=57 / temporal-mvp / weightp / no-weightb / no-analyze-src-pics / deblock=-3:-3 / no-sao / no-sao-non-deblock / rd=4 / no-early-skip / rskip / no-fast-intra / no-tskip-fast / no-cu-lossless / no-b-intra / no-splitrd-skip / rdpenalty=0 / psy-rd=2.00 / psy-rdoq=1.00 / no-rd-refine / no-lossless / cbqpoffs=0 / crqpoffs=0 / rc=crf / crf=17.0 / qcomp=0.60 / qpstep=4 / stats-write=0 / stats-read=0 / vbv-maxrate=160000 / vbv-bufsize=160000 / vbv-init=0.9 / crf-max=0.0 / crf-min=0.0 / ipratio=1.40 / pbratio=1.30 / aq-mode=1 / aq-strength=1.00 / cutree / zone-count=0 / no-strict-cbr / qg-size=32 / no-rc-grain / qpmax=69 / qpmin=0 / no-const-vbv / sar=1 / overscan=0 / videoformat=5 / range=0 / colorprim=9 / transfer=16 / colormatrix=9 / chromaloc=1 / chromaloc-top=2 / chromaloc-bottom=2 / display-window=0 / master-display=G(8500,39850)B(6550,2300)R(35400,14600)WP(15635,16450)L(10000000,1) / max-cll=996,246 / min-luma=0 / max-luma=1023 / log2-max-poc-lsb=8 / vui-timing-info / vui-hrd-info / slices=1 / no-opt-qp-pps / no-opt-ref-list-length-pps / no-multi-pass-opt-rps / scenecut-bias=0.05 / no-opt-cu-delta-qp / no-aq-motion / hdr / hdr-opt / no-dhdr10-opt / no-idr-recovery-sei / analysis-reuse-level=5 / scale-factor=0 / refine-intra=0 / refine-inter=0 / refine-mv=0 / no-limit-sao / ctu-info=0 / no-lowpass-dct / refine-mv-type=0 / copy-pic=1 / max-ausize-factor=1.0 / no-dynamic-refine / no-single-sei
Language : Russian
Default : Yes
Forced : No
Color range : Limited
Color primaries : BT.2020
Transfer characteristics : PQ
Matrix coefficients : BT.2020 non-constant
Mastering display color primaries : BT.2020
Mastering display luminance : min: 0.0001 cd/m2, max: 1000 cd/m2
Maximum Content Light Level : 996 cd/m2
Maximum Frame-Average Light Level : 246 cd/m2

Audio #1
ID : 2
Format : DTS
Format/Info : Digital Theater Systems
Codec ID : A_DTS
Duration : 2 h 18 min
Bit rate mode : Constant
Bit rate : 1 509 kb/s
Channel(s) : 6 channels
Channel positions : Front: L C R, Side: L R, LFE
Sampling rate : 48.0 kHz
Frame rate : 93.750 FPS (512 SPF)
Bit depth : 16 bits
Compression mode : Lossy
Delay relative to video : 2 s 0 ms
Stream size : 1.46 GiB (4%)
Title : Дубляж, Blu-ray CEE
Language : Russian
Default : Yes
Forced : No

Audio #2
ID : 3
Format : DTS
Format/Info : Digital Theater Systems
Codec ID : A_DTS
Duration : 2 h 18 min
Bit rate mode : Constant
Bit rate : 1 509 kb/s
Channel(s) : 6 channels
Channel positions : Front: L C R, Side: L R, LFE
Sampling rate : 48.0 kHz
Frame rate : 93.750 FPS (512 SPF)
Bit depth : 16 bits
Compression mode : Lossy
Delay relative to video : 2 s 0 ms
Stream size : 1.46 GiB (4%)
Title : DVO
Language : Russian
Default : No
Forced : No

Audio #3
ID : 4
Format : AC-3
Format/Info : Audio Coding 3
Codec ID : A_AC3
Duration : 2 h 18 min
Bit rate mode : Constant
Bit rate : 192 kb/s
Channel(s) : 2 channels
Channel positions : Front: L R
Sampling rate : 48.0 kHz
Frame rate : 31.250 FPS (1536 SPF)
Bit depth : 16 bits
Compression mode : Lossy
Delay relative to video : 2 s 0 ms
Stream size : 190 MiB (0%)
Title : SDI Media
Language : Russian
Service kind : Complete Main
Default : No
Forced : No

Audio #4
ID : 5
Format : DTS
Format/Info : Digital Theater Systems
Codec ID : A_DTS
Duration : 2 h 18 min
Bit rate mode : Constant
Bit rate : 1 509 kb/s
Channel(s) : 6 channels
Channel positions : Front: L C R, Side: L R, LFE
Sampling rate : 48.0 kHz
Frame rate : 93.750 FPS (512 SPF)
Bit depth : 16 bits
Compression mode : Lossy
Delay relative to video : 2 s 0 ms
Stream size : 1.46 GiB (4%)
Title : DVO, Гланц и Королёва (Old)
Language : Russian
Default : No
Forced : No

Audio #5
ID : 6
Format : DTS
Format/Info : Digital Theater Systems
Codec ID : A_DTS
Duration : 2 h 18 min
Bit rate mode : Constant
Bit rate : 1 509 kb/s
Channel(s) : 6 channels
Channel positions : Front: L C R, Side: L R, LFE
Sampling rate : 48.0 kHz
Frame rate : 93.750 FPS (512 SPF)
Bit depth : 16 bits
Compression mode : Lossy
Delay relative to video : 2 s 0 ms
Stream size : 1.46 GiB (4%)
Title : DVO, Гланц и Королёва (New)
Language : Russian
Default : No
Forced : No

Audio #6
ID : 7
Format : DTS
Format/Info : Digital Theater Systems
Codec ID : A_DTS
Duration : 2 h 18 min
Bit rate mode : Constant
Bit rate : 1 509 kb/s
Channel(s) : 6 channels
Channel positions : Front: L C R, Side: L R, LFE
Sampling rate : 48.0 kHz
Frame rate : 93.750 FPS (512 SPF)
Bit depth : 16 bits
Compression mode : Lossy
Delay relative to video : 2 s 0 ms
Stream size : 1.46 GiB (4%)
Title : VO, Гаврилов
Language : Russian
Default : No
Forced : No

Audio #7
ID : 8
Format : DTS
Format/Info : Digital Theater Systems
Codec ID : A_DTS
Duration : 2 h 18 min
Bit rate mode : Constant
Bit rate : 1 509 kb/s
Channel(s) : 6 channels
Channel positions : Front: L C R, Side: L R, LFE
Sampling rate : 48.0 kHz
Frame rate : 93.750 FPS (512 SPF)
Bit depth : 16 bits
Compression mode : Lossy
Delay relative to video : 2 s 0 ms
Stream size : 1.46 GiB (4%)
Title : VO, Живов
Language : Russian
Default : No
Forced : No

Audio #8
ID : 9
Format : DTS
Format/Info : Digital Theater Systems
Codec ID : A_DTS
Duration : 2 h 18 min
Bit rate mode : Constant
Bit rate : 1 509 kb/s
Channel(s) : 6 channels
Channel positions : Front: L C R, Side: L R, LFE
Sampling rate : 48.0 kHz
Frame rate : 93.750 FPS (512 SPF)
Bit depth : 16 bits
Compression mode : Lossy
Delay relative to video : 2 s 0 ms
Stream size : 1.46 GiB (4%)
Title : VO, Рудой
Language : Russian
Default : No
Forced : No

Audio #9
ID : 10
Format : AC-3
Format/Info : Audio Coding 3
Codec ID : A_AC3
Duration : 2 h 18 min
Bit rate mode : Constant
Bit rate : 192 kb/s
Channel(s) : 2 channels
Channel positions : Front: L R
Sampling rate : 48.0 kHz
Frame rate : 31.250 FPS (1536 SPF)
Bit depth : 16 bits
Compression mode : Lossy
Delay relative to video : 2 s 0 ms
Stream size : 190 MiB (0%)
Title : Сергей Визгунов
Language : Russian
Service kind : Complete Main
Default : No
Forced : No

Audio #10
ID : 11
Format : DTS
Format/Info : Digital Theater Systems
Codec ID : A_DTS
Duration : 2 h 18 min
Bit rate mode : Constant
Bit rate : 1 509 kb/s
Channel(s) : 6 channels
Channel positions : Front: L C R, Side: L R, LFE
Sampling rate : 48.0 kHz
Frame rate : 93.750 FPS (512 SPF)
Bit depth : 16 bits
Compression mode : Lossy
Delay relative to video : 2 s 0 ms
Stream size : 1.46 GiB (4%)
Title : Original
Language : English
Default : No
Forced : No

Text #1
ID : 12
Format : UTF-8
Codec ID : S_TEXT/UTF8
Codec ID/Info : UTF-8 Plain Text
Duration : 2 h 17 min
Bit rate : 67 b/s
Count of elements : 1186
Stream size : 67.6 KiB (0%)
Language : Russian
Default : No
Forced : No

Text #2
ID : 13
Format : UTF-8
Codec ID : S_TEXT/UTF8
Codec ID/Info : UTF-8 Plain Text
Duration : 2 h 15 min
Bit rate : 45 b/s
Count of elements : 1192
Stream size : 45.1 KiB (0%)
Title : Stripped SRT
Language : English
Default : No
Forced : No

Text #3
ID : 14
Format : UTF-8
Codec ID : S_TEXT/UTF8
Codec ID/Info : UTF-8 Plain Text
Duration : 2 h 16 min
Bit rate : 46 b/s
Count of elements : 1229
Stream size : 46.1 KiB (0%)
Title : SDH
Language : English
Default : No
Forced : No

Text #4
ID : 15
Format : PGS
Muxing mode : zlib
Codec ID : S_HDMV/PGS
Codec ID/Info : Picture based subtitle format used on BDs/HD-DVDs
Duration : 2 h 16 min
Bit rate : 24.4 kb/s
Count of elements : 2458
Stream size : 23.9 MiB (0%)
Title : SDH
Language : English
Default : No
Forced : No

Text #5
ID : 16
Format : PGS
Muxing mode : zlib
Codec ID : S_HDMV/PGS
Codec ID/Info : Picture based subtitle format used on BDs/HD-DVDs
Duration : 2 h 16 min
Bit rate : 20.5 kb/s
Count of elements : 2612
Stream size : 20.1 MiB (0%)
Language : French
Default : No
Forced : No

Text #6
ID : 17
Format : PGS
Muxing mode : zlib
Codec ID : S_HDMV/PGS
Codec ID/Info : Picture based subtitle format used on BDs/HD-DVDs
Duration : 2 h 16 min
Bit rate : 24.6 kb/s
Count of elements : 2588
Stream size : 24.1 MiB (0%)
Language : Spanish
Default : No
Forced : No

Text #7
ID : 18
Format : PGS
Muxing mode : zlib
Codec ID : S_HDMV/PGS
Codec ID/Info : Picture based subtitle format used on BDs/HD-DVDs
Duration : 2 h 16 min
Bit rate : 26.0 kb/s
Count of elements : 2478
Stream size : 25.4 MiB (0%)
Language : German
Default : No
Forced : No

Text #8
ID : 19
Format : PGS
Muxing mode : zlib
Codec ID : S_HDMV/PGS
Codec ID/Info : Picture based subtitle format used on BDs/HD-DVDs
Duration : 2 h 17 min
Bit rate : 21.8 kb/s
Count of elements : 2372
Stream size : 21.5 MiB (0%)
Language : Russian
Default : Yes
Forced : No

Text #9
ID : 20
Format : PGS
Muxing mode : zlib
Codec ID : S_HDMV/PGS
Codec ID/Info : Picture based subtitle format used on BDs/HD-DVDs
Duration : 2 h 17 min
Bit rate : 37.2 kb/s
Count of elements : 2372
Stream size : 36.6 MiB (0%)
Language : Russian
Default : No
Forced : No

Menu
00:00:00.000 : :00:00:00.000
00:03:52.232 : :00:03:52.232
00:08:57.370 : :00:08:57.370
00:12:18.905 : :00:12:18.905
00:16:26.319 : :00:16:26.319
00:19:45.184 : :00:19:45.184
00:23:31.410 : :00:23:31.410
00:27:28.814 : :00:27:28.814
00:32:03.255 : :00:32:03.255
00:33:45.190 : :00:33:45.190
00:37:59.444 : :00:37:59.444
00:40:57.622 : :00:40:57.622
00:43:46.958 : :00:43:46.958
00:50:44.708 : :00:50:44.708
00:55:10.474 : :00:55:10.474
01:00:05.101 : :01:00:05.101
01:02:51.768 : :01:02:51.768
01:08:54.297 : :01:08:54.297
01:13:08.884 : :01:13:08.884
01:16:23.412 : :01:16:23.412
01:20:33.829 : :01:20:33.829
01:22:49.131 : :01:22:49.131
01:26:14.503 : :01:26:14.503
01:29:54.889 : :01:29:54.889
01:32:52.901 : :01:32:52.901
01:37:12.827 : :01:37:12.827
01:40:53.381 : :01:40:53.381
01:44:59.793 : :01:44:59.793
01:48:14.154 : :01:48:14.154
01:52:27.574 : :01:52:27.574
01:55:44.938 : :01:55:44.938
01:57:39.552 : :01:57:39.552
02:01:53.473 : :02:01:53.473
02:04:20.453 : :02:04:20.453
02:07:06.118 : :02:07:06.118
02:16:31.683 : :02:16:31.683



Скачать Матрица: Перезагрузка через торрент https://d.radikal.ru/d38/1810/6f/2d2338ee4c70.jpg Скачать, смотреть онлайн Матрица: Перезагрузка бесплантно в хорошем качестве Описание: Борцы за свободу Нео, Тринити и Морфеус продолжают руководить восстанием людей против Армии Машин. Для уничтожения системы ... 10 10 3
Info! Золотая раздача, скачанное не засчитывается.
Торрент: Зарегистрирован [2018-10-29 02:07] · скачан: 85 раз
Статус: √ проверено
Размер: 41.43 GB
Как cкачать? Как скачать Матрица: Перезагрузка через торрент | UTorrent




Последний раз редактировалось: sheker187 (2018-10-29 04:49), всего редактировалось 2 раз(а)

28-11-2019 20:33  


Отключить вcю реклaмy на сайте, в т.ч. и в плеере онлайн просмотра!

29-10-2018 02:08 Матрица: Перезагрузка Скачать торрент  

Торрент обновлен:(Замена звука, Добавлен авторский перевод.устранен Рассинхрон в дубляже)

Приношу свои извинения,за неудобство!
просьба перекачать торрент!



    Дорогой пользователь! Огромная просьба, поблагодарите релизера, оцените раздачу и оставьте свои комментарий, если Вы скачали Матрица: Перезагрузка через торрент бесплатно!!
    Комментировать посты могут только пользователи прошедшие не сложную регистрацию
    Показать сообщения:    


    Матрица: Перезагрузка через торрент
    Скачать бесплатно Матрица: Перезагрузка
    Матрица: Перезагрузка скачать торрент
    Матрица: Перезагрузка смотреть онлайн
    Cкачать фильм Матрица: Перезагрузка бесплатно
    Матрица: Перезагрузка скачать торрент в хорошем качестве
    Матрица: Перезагрузка смотреть онлайн бесплатно в хорошем качестве
    Вы не можете начинать темы
    Вы не можете отвечать на сообщения
    Вы не можете редактировать свои сообщения
    Вы не можете удалять свои сообщения
    Вы не можете голосовать в опросах
    Вы не можете прикреплять файлы к сообщениям
    Вы можете скачивать файлы
    Матрица: Перезагрузка / The Matrix Reloaded [2003, фантастика, боевик, UHD BDRip 2160p] Дубляж + MVO + 2xDVO + 4xAVO смотреть онлайн, скачать торрент picoco.icu