Достать ножи: Стеклянная луковица

MVO

Добыча

Дубляж

Уэнсдэй

1 сезон

Тор

Дубляж

13 клиническая

1 сезон

Жестокая ночь

MVO

Одни из нас

1 сезон

Deluxe

pack

Рекомендуем

30

Пиратка

ВАЖНО

ВАЖНО

Ghostwire

Пиратка

jed

RePack

nioh2

RePack

RDR2

RePack

NEED FOR SPEED™ PAYBACK

RePack

скачать торрент

Кинопоиск HD

Острые козырьки 6 сезон

6 сезон

FAR CRY 6

RePack

скачать торрент

Лицензия

скачать торрент

MVO

1

1 сезон

скачать торрент

1 сезон

скачать торрент

Лицензия

  

Mamma Mia! 2 / Mamma Mia! Here We Go Again (Ол Паркер) [2018, мюзикл, мелодрама, комедия, UHD BDRip 2160p] [SDR] Дубляж (rus, ukr) [Лицензия]

Mamma Mia! 2 через торрент piratbit.org

Размер: 31.31 GB | Добавлен: 4 года 3 мес. назад | Торрент скачан:6 раз
Смотреть онлайн | Скачать | Поддержите нас   

28-10-2018 02:00 Mamma Mia! 2 Скачать торрент  

Mamma Mia! 2 / Mamma Mia! Here We Go Again«Мы покажем вам жаркое лето»
Год выпуска: 2018
Страна: Великобритания, США
Жанр: мюзикл, мелодрама, комедия
Продолжительность: 01:53:39
Перевод: Дублированный | Лицензия
Субтитры: Русские (на песни, отключаемые), английские (SDH, SDH Colored)
Режиссер: Ол Паркер
В ролях:

Аманда Сайфред (Sophie), Энди Гарсиа (Fernando Cienfuegos), Селия Имри (Viсе Chancellor), Лили Джеймс (Young Donna), Алекса Дейвис (Young Rosie), Джессика Кинэн Винн (Young Tanya), Доминик Купер (Sky), Джули Уолтерс (Rosie), Кристин Барански (Tanya), Хью Скиннер (Young Harry), Пирс Броснан (Sam), Омид Джалили (Greek Official)
Описание:
Сбежать на райский греческий остров, чтобы гулять по улочкам очаровательного города, наслаждаться местной кухней, танцевать до утра, кататься на яхте и влюбиться без памяти - что может быть лучше? Звучит, как идеальный план на лето... да и на всю жизнь тоже.
Рейтинг:

MPAA: PG-13 - Детям до 13 лет просмотр не желателен
Качество: UHD BDRip 2160p | SDR
Формат: MKV
Видео: HEVC, 38.0 Мбит/с, 3840x1600, 23.976 кадр/с, 10 bit
Аудио 01: AC3, 6 ch, 384 Kbps - Русский (Дубляж, Лицензия)
Аудио 02: AC3, 6 ch, 192 Kbps - Украинский (Дубляж)
Аудио 03: AC3, 6 ch, 448 Kbps - Английский
Навигация по главам: есть
Общее
Уникальный идентификатор : 189930201591665784661751485491426349045 (0x8EE339EC1A4222B8A6E413DEBA87CFF5)
Полное имя : F:\Mamma.Mia.Here.We.Go.Again.2018.BDRip.2160p.BDRip.x265.10bit.SDR.Master5 (1).mkv
Формат : Matroska
Версия формата : Version 4
Размер файла : 31,3 Гбайт
Продолжительность : 1 ч. 53 м.
Общий поток : 39,4 Мбит/сек
Название фильма : Mamma.Mia.Here.We.Go.Again.2018.BDRip.2160p.BDRip.x265.10bit.SDR.Master5
Дата кодирования : UTC 2018-10-27 21:42:59
Программа кодирования : mkvmerge v7.9.0 ('Birds') 64bit
Библиотека кодирования : libebml v1.3.1 + libmatroska v1.4.2
Обложка : Yes
Attachments : cover_land.jpg / small_cover.jpg / small_cover_land.jpg / cover.jpg / cover

Видео
Идентификатор : 1
Формат : HEVC
Формат/Информация : High Efficiency Video Coding
Профиль формата : Main 10@L5.1@High
Идентификатор кодека : V_MPEGH/ISO/HEVC
Продолжительность : 1 ч. 53 м.
Битрейт : 38,0 Мбит/сек
Ширина : 3840 пикселей
Высота : 1600 пикселей
Соотношение сторон : 2,40:1
Режим частоты кадров : Постоянный
Частота кадров : 23,976 (24000/1001) кадра/сек
Цветовое пространство : YUV
Субдискретизация насыщенности : 4:2:0
Битовая глубина : 10 бит
Бит/(Пиксели*Кадры) : 0.258
Размер потока : 30,2 Гбайт (96%)
Заголовок : Mamma.Mia.Here.We.Go.Again.2018.BDRip.2160p.BDRip.x265.10bit.SDR.Master5
Библиотека кодирования : x265 2.8+54-79c76e42cb28:[Windows][GCC 7.3.1][64 bit] 10bit
Настройки программы : cpuid=1111039 / frame-threads=16 / numa-pools=20 / wpp / no-pmode / no-pme / no-psnr / no-ssim / log-level=2 / input-csp=1 / input-res=3840x1600 / interlace=0 / total-frames=0 / level-idc=51 / high-tier=1 / uhd-bd=0 / ref=3 / no-allow-non-conformance / repeat-headers / annexb / aud / hrd / info / hash=0 / no-temporal-layers / no-open-gop / min-keyint=1 / keyint=24 / gop-lookahead=0 / bframes=4 / b-adapt=2 / b-pyramid / bframe-bias=0 / rc-lookahead=25 / lookahead-slices=4 / scenecut=40 / radl=0 / no-intra-refresh / ctu=64 / min-cu-size=8 / no-rect / no-amp / max-tu-size=32 / tu-inter-depth=1 / tu-intra-depth=1 / limit-tu=0 / rdoq-level=0 / dynamic-rd=0.00 / no-ssim-rd / signhide / no-tskip / nr-intra=0 / nr-inter=0 / no-constrained-intra / strong-intra-smoothing / max-merge=2 / limit-refs=3 / no-limit-modes / me=1 / subme=2 / merange=57 / temporal-mvp / weightp / no-weightb / no-analyze-src-pics / deblock=0:0 / no-sao / no-sao-non-deblock / rd=3 / no-early-skip / rskip / no-fast-intra / no-tskip-fast / no-cu-lossless / no-b-intra / no-splitrd-skip / rdpenalty=0 / psy-rd=2.00 / psy-rdoq=0.00 / no-rd-refine / no-lossless / cbqpoffs=0 / crqpoffs=0 / rc=crf / crf=18.0 / qcomp=0.60 / qpstep=4 / stats-write=0 / stats-read=0 / vbv-maxrate=160000 / vbv-bufsize=160000 / vbv-init=0.9 / crf-max=0.0 / crf-min=0.0 / ipratio=1.40 / pbratio=1.30 / aq-mode=1 / aq-strength=1.00 / cutree / zone-count=0 / no-strict-cbr / qg-size=32 / no-rc-grain / qpmax=69 / qpmin=0 / no-const-vbv / sar=1 / overscan=0 / videoformat=5 / range=0 / colorprim=2 / transfer=2 / colormatrix=2 / chromaloc=0 / display-window=0 / max-cll=0,0 / min-luma=0 / max-luma=1023 / log2-max-poc-lsb=8 / vui-timing-info / vui-hrd-info / slices=1 / opt-qp-pps / opt-ref-list-length-pps / no-multi-pass-opt-rps / scenecut-bias=0.05 / no-opt-cu-delta-qp / no-aq-motion / no-hdr / no-hdr-opt / no-dhdr10-opt / no-idr-recovery-sei / analysis-reuse-level=5 / scale-factor=0 / refine-intra=0 / refine-inter=0 / refine-mv=0 / no-limit-sao / ctu-info=0 / no-lowpass-dct / refine-mv-type=0 / copy-pic=1 / max-ausize-factor=1.0 / no-dynamic-refine / no-single-sei
Default : Да
Forced : Нет

Аудио #1
Идентификатор : 2
Формат : AC-3
Формат/Информация : Audio Coding 3
Коммерческое название : Dolby Digital
Идентификатор кодека : A_AC3
Продолжительность : 1 ч. 53 м.
Вид битрейта : Постоянный
Битрейт : 640 Кбит/сек
Каналы : 6 каналов
Channel layout : L R C LFE Ls Rs
Частота : 48,0 КГц
Частота кадров : 31,250 кадров/сек (1536 SPF)
Битовая глубина : 16 бит
Метод сжатия : С потерями
Размер потока : 520 Мбайт (2%)
Заголовок : Лицензия
Язык : Russian
ServiceKind/String : Complete Main
Default : Да
Forced : Нет

Аудио #2
Идентификатор : 3
Формат : AC-3
Формат/Информация : Audio Coding 3
Коммерческое название : Dolby Digital
Идентификатор кодека : A_AC3
Продолжительность : 1 ч. 53 м.
Вид битрейта : Постоянный
Битрейт : 192 Кбит/сек
Каналы : 2 канала
Channel layout : L R
Частота : 48,0 КГц
Частота кадров : 31,250 кадров/сек (1536 SPF)
Битовая глубина : 16 бит
Метод сжатия : С потерями
Размер потока : 156 Мбайт (0%)
Заголовок : Дублированный
Язык : Ukrainian
ServiceKind/String : Complete Main
Default : Нет
Forced : Нет

Аудио #3
Идентификатор : 4
Формат : AC-3
Формат/Информация : Audio Coding 3
Коммерческое название : Dolby Digital
Идентификатор кодека : A_AC3
Продолжительность : 1 ч. 53 м.
Вид битрейта : Постоянный
Битрейт : 448 Кбит/сек
Каналы : 6 каналов
Channel layout : L R C LFE Ls Rs
Частота : 48,0 КГц
Частота кадров : 31,250 кадров/сек (1536 SPF)
Битовая глубина : 16 бит
Метод сжатия : С потерями
Размер потока : 364 Мбайт (1%)
Заголовок : AC3
Язык : English
ServiceKind/String : Complete Main
Default : Нет
Forced : Нет

Текст #1
Идентификатор : 5
Формат : UTF-8
Идентификатор кодека : S_TEXT/UTF8
Идентификатор кодека/Информация : UTF-8 Plain Text
Продолжительность : 1 ч. 51 м.
Битрейт : 34 бит/сек
ElementCount : 549
Размер потока : 28,4 Кбайт (0%)
Заголовок : Forced
Язык : Russian
Default : Да
Forced : Да

Текст #2
Идентификатор : 6
Формат : UTF-8
Идентификатор кодека : S_TEXT/UTF8
Идентификатор кодека/Информация : UTF-8 Plain Text
Продолжительность : 1 ч. 52 м.
Битрейт : 68 бит/сек
ElementCount : 1987
Размер потока : 56,5 Кбайт (0%)
Заголовок : Full
Язык : English
Default : Нет
Forced : Нет

Текст #3
Идентификатор : 7
Формат : UTF-8
Идентификатор кодека : S_TEXT/UTF8
Идентификатор кодека/Информация : UTF-8 Plain Text
Продолжительность : 1 ч. 52 м.
Битрейт : 75 бит/сек
ElementCount : 2175
Размер потока : 62,4 Кбайт (0%)
Заголовок : SDH
Язык : English
Default : Нет
Forced : Нет

Текст #4
Идентификатор : 8
Формат : PGS
Режим смешивания : zlib
Идентификатор кодека : S_HDMV/PGS
Идентификатор кодека/Информация : Picture based subtitle format used on BDs/HD-DVDs
Продолжительность : 1 ч. 45 м.
Битрейт : 113 Кбит/сек
ElementCount : 3738
Размер потока : 85,3 Мбайт (0%)
Заголовок : Sing-Alongs
Язык : English
Default : Нет
Forced : Нет

Меню
00:00:00.000 : en:Chapter 1
00:02:59.805 : en:Chapter 2
00:09:08.798 : en:Chapter 3
00:16:41.000 : en:Chapter 4
00:24:23.712 : en:Chapter 5
00:26:55.030 : en:Chapter 6
00:34:58.888 : en:Chapter 7
00:39:13.476 : en:Chapter 8
00:43:47.500 : en:Chapter 9
00:50:27.358 : en:Chapter 10
00:53:26.870 : en:Chapter 11
00:58:31.675 : en:Chapter 12
01:04:52.388 : en:Chapter 13
01:15:11.507 : en:Chapter 14
01:24:53.046 : en:Chapter 15
01:27:04.511 : en:Chapter 16
01:28:58.917 : en:Chapter 17
01:33:01.785 : en:Chapter 18
01:37:19.250 : en:Chapter 19
01:43:09.517 : en:Chapter 20



Скачать Mamma Mia! 2 через торрент https://d.radikal.ru/d15/1810/50/046ad8aade7b.jpg Скачать, смотреть онлайн Mamma Mia! 2 бесплантно в хорошем качестве Описание: Сбежать на райский греческий остров, чтобы гулять по улочкам очаровательного города, наслаждаться местной кухней, танцевать до ... 5 10 1
Info! Золотая раздача, скачанное не засчитывается.
Торрент: Зарегистрирован [2018-10-28 02:00] · скачан: 6 раз
Статус: √ проверено
Размер: 31.31 GB
Как cкачать? Как скачать Mamma Mia! 2 через торрент | UTorrent

% Раздел Тема Автор DL S | L
Ultra HD (UHD: 2K, 4K, 8K) [ 86.67 GB ] Mamma Mia! 2 / Mamma Mia! Here We Go Again | Лицензия | 2160p bober100 Скачать
1 | 0
Фильмы 2018 [DVDrip, WEB-DLRip, HDrip] (DUB, MVO) [ 2.19 GB ] Mamma Mia! 2 / Mamma Mia! Here We Go Again | Лицензия BD EUR | BDRip bober100 Скачать
1 | 0
Ultra HD (UHD: 2K, 4K, 8K) [ 20.5 GB ] Mamma Mia! 2 / Mamma Mia! Here We Go Again | Лицензия | 2160p sheker187 Скачать
1 | 0
Ultra HD (UHD: 2K, 4K, 8K) [ 39.69 GB ] Mamma Mia! 2 / Mamma Mia! Here We Go Again | Лицензия | 2160p bober100 Скачать
1 | 0
Фильмы (Blu-ray, BD-Remux, HDDVD) [ 28.04 GB ] Mamma Mia! 2 / Mamma Mia! Here We Go Again | Лицензия | BD Remux 1080p bober100 Скачать
1 | 0
Фильмы 2018 [DVDrip, WEB-DLRip, HDrip] (DUB, MVO) [ 745 MB ] Mamma Mia! 2 / Mamma Mia! Here We Go Again | Лицензия BD EUR | BDRip bober100 Скачать
1 | 0
Фильмы 2018 [DVDrip, WEB-DLRip, HDrip] (DUB, MVO) [ 2.17 GB ] Mamma Mia! 2 / Mamma Mia! Here We Go Again | Лицензия | BDRip-AVC bober100 Скачать
1 | 0

28-11-2019 20:33  


Отключить вcю реклaмy на сайте, в т.ч. и в плеере онлайн просмотра!


    Дорогой пользователь! Огромная просьба, поблагодарите релизера, оцените раздачу и оставьте свои комментарий, если Вы скачали Mamma Mia! 2 через торрент бесплатно!!
    Комментировать посты могут только пользователи прошедшие не сложную регистрацию
    Показать сообщения:    


    Mamma Mia! 2 через торрент
    Скачать бесплатно Mamma Mia! 2
    Mamma Mia! 2 скачать торрент
    Mamma Mia! 2 смотреть онлайн
    Cкачать фильм Mamma Mia! 2 бесплатно
    Mamma Mia! 2 скачать торрент в хорошем качестве
    Mamma Mia! 2 смотреть онлайн бесплатно в хорошем качестве
    Вы не можете начинать темы
    Вы не можете отвечать на сообщения
    Вы не можете редактировать свои сообщения
    Вы не можете удалять свои сообщения
    Вы не можете голосовать в опросах
    Вы не можете прикреплять файлы к сообщениям
    Вы можете скачивать файлы
    Mamma Mia! 2 / Mamma Mia! Here We Go Again [2018, мюзикл, мелодрама, комедия, UHD BDRip 2160p] [SDR] Дубляж [Лицензия] смотреть онлайн, скачать торрент picoco.icu