Лицензия

MVO

1

1 сезон

Лицензия

Лицензия

13

MVO

1 сезон

Deluxe Edition

pack

Рекомендуем

30

Repack

ВАЖНО

ВАЖНО

Ghostwire

RePack

jed

RePack

fifa19

RePack

RDR2

RePack

NEED FOR SPEED™ PAYBACK

RePack

Кинопоиск HD

 Острые козырьки 6 сезон

6 сезон

FAR CRY 6

RePack

Лицензия

MVO

1

1 сезон

1 сезон

Лицензия

  

Самые первые (Анатолий Граник) [1961, СССР, драма, SATRip от AVP Studio]

Самые первые через торрент piratbit.org

Размер: 1.09 GB | Добавлен: 3 года 11 мес. назад | Торрент скачан:5 раз
Смотреть онлайн Самые первые | Скачать   

28-10-2018 09:45 Самые первые Скачать торрент  

Самые первые
Страна: СССР
Производство: Ленфильм

Жанр: драма
Год выпуска: 1961
Продолжительность: 01:36:48

Перевод: Не требуется
Cубтитры: нет
Оригинальная аудиодорожка: русский

Режиссер: Анатолий Граник

В ролях:
Игорь Пушкарёв, Нина Дробышева, Павел Махотин, Людмила Шагалова, Владимир Честноков, Владимир Самойлов, Олег Жаков, Александр Стрельников, Павел Кашлаков, Станислав Фесюнов, Виктор Терехов, Лев Бриллиантов...
Об актёрах подробней

Описание:
После испытательного полета летчика Сергея Сазонова (Игорь Пушкарёв) приглашают в группу космонавтов. Начинается интенсивная подготовка к полету в космос: занятия в камере невесомости, постоянная учеба. Сергей решает, что не имеет права встречаться с веселой студенткой Наташей, которую его друзья обвиняют в легкомыслии. Но их телефонный разговор заканчивается тем, что он просит ее выйти за него замуж.

Исходник: DVB
Качество видео: SATRip
Формат видео: AVI

Видео: 672x496 (4:3), 25,000 кадров/сек, XviD ~ 1404 kbps avg, 0.168 bit/pixel
Аудио: 48 kHz, Dolby Digital AC3 2.0, 192 kbps

Раздача от:
Общее
Полное имя : Samye.pervye.1961.SATRip_[New-team]_by_AVP_Studio.avi
Формат : AVI
Формат/Информация : Audio Video Interleave
Размер файла : 1,09 Гбайт
Продолжительность : 1 ч. 36 м.
Общий поток : 1606 Кбит/сек
Программа кодирования : VirtualDubMod 1.5.10.3 | www.virtualdub-fr.org || (build 2550/release)
Библиотека кодирования : VirtualDubMod build 2550/release

Видео
Идентификатор : 0
Формат : MPEG-4 Visual
Профиль формата : Advanced Simple@L5
Настройки формата : BVOP1 / Custom Matrix
Параметр BVOP формата : 1
Параметр QPel формата : Нет
Параметр GMC формата : Без точки перехода
Параметр матрицы формата : Выборочная
Идентификатор кодека : XVID
Идентификатор кодека/Подсказка : XviD
Продолжительность : 1 ч. 36 м.
Битрейт : 1404 Кбит/сек
Ширина : 672 пикселя
Высота : 496 пикселей
Соотношение сторон : 4:3
Частота кадров : 25,000 кадров/сек
Цветовое пространство : YUV
Субдискретизация насыщенности : 4:2:0
Битовая глубина : 8 бит
Тип развёртки : Прогрессивная
Метод сжатия : С потерями
Бит/(Пиксели*Кадры) : 0.168
Размер потока : 972 Мбайт (87%)
Библиотека кодирования : XviD 73

Аудио
Идентификатор : 1
Формат : AC-3
Формат/Информация : Audio Coding 3
Коммерческое название : Dolby Digital
Идентификатор кодека : 2000
Продолжительность : 1 ч. 36 м.
Вид битрейта : Постоянный
Битрейт : 192 Кбит/сек
Каналы : 2 канала
Channel layout : L R
Частота : 48,0 КГц
Частота кадров : 31,250 кадров/сек (1536 SPF)
Битовая глубина : 16 бит
Метод сжатия : С потерями
Размер потока : 133 Мбайт (12%)
Выравнивание : Разделение по промежуткам
Продолжительность промежутка : 40 мс. (1,00 видеокадр)
Время предзагрузки промежутка : 500 мс



Скачать Самые первые через торрент http://picplus.ru/img/1810/28/cac3c1e3.png Скачать, смотреть онлайн Самые первые бесплантно в хорошем качестве Описание:После испытательного полета летчика Сергея Сазонова (Игорь Пушкарёв) приглашают в группу космонавтов. Начинается интенсивная ... 10 10 1
Info! Золотая раздача, скачанное не засчитывается.
Торрент: Зарегистрирован [2018-10-28 09:45] · скачан: 5 раз
Статус: √ проверено
Размер: 1.09 GB
Как cкачать? Как скачать Самые первые через торрент | UTorrent

% Раздел Тема Автор DL S | L
Кино СССР [ 1.09 GB ] Самые первые | | SATRip-AVC от AVP Studio AVP Studio Скачать
1 | 0

28-11-2019 20:33  

Отключить вcю реклaмy на сайте

    Дорогой пользователь! Огромная просьба, поблагодарите релизера, оцените раздачу и оставьте свои комментарий, если Вы скачали Самые первые через торрент бесплатно!!
    Комментировать посты могут только пользователи прошедшие не сложную регистрацию
    Показать сообщения:    


    Самые первые через торрент
    Скачать бесплатно Самые первые
    Самые первые скачать торрент
    Самые первые смотреть онлайн
    Cкачать фильм Самые первые бесплатно
    Самые первые скачать торрент в хорошем качестве
    Самые первые смотреть онлайн бесплатно в хорошем качестве
    Вы не можете начинать темы
    Вы не можете отвечать на сообщения
    Вы не можете редактировать свои сообщения
    Вы не можете удалять свои сообщения
    Вы не можете голосовать в опросах
    Вы не можете прикреплять файлы к сообщениям
    Вы можете скачивать файлы