Достать ножи: Стеклянная луковица

MVO

Добыча

Дубляж

Уэнсдэй

1 сезон

Тор

Дубляж

13 клиническая

1 сезон

Жестокая ночь

MVO

Одни из нас

1 сезон

Deluxe

pack

Рекомендуем

30

Пиратка

ВАЖНО

ВАЖНО

Ghostwire

Пиратка

jed

RePack

nioh2

RePack

RDR2

RePack

NEED FOR SPEED™ PAYBACK

RePack

скачать торрент

Кинопоиск HD

Острые козырьки 6 сезон

6 сезон

FAR CRY 6

RePack

скачать торрент

Лицензия

скачать торрент

MVO

1

1 сезон

скачать торрент

1 сезон

скачать торрент

Лицензия

  

2001 год: Космическая одиссея / 2001: A Space Odyssey (Стэнли Кубрик) [1968, фантастика, приключения, UHD BDRemux 2160p] MVO + Дубляж +DVO + AVO

2001 год: Космическая одиссея через торрент piratbit.org

Размер: 70.45 GB | Добавлен: 4 года 3 мес. назад | Торрент скачан:46 раз
Смотреть онлайн | Скачать | Поддержите нас   

28-10-2018 13:18 2001 год: Космическая одиссея Скачать торрент  

2001 год: Космическая одиссея / 2001: A Space Odyssey

Год выпуска: 1968
Страна: Великобритания, США
Жанр: фантастика, приключения
Продолжительность: 02:28:52
Перевод: Дублированный, профессиональный многоголосый, профессиональный двухголосый, авторский
Субтитры: Русские, английские
Режиссер: Стэнли Кубрик
В ролях:

Кир Дуллеа (Dr. Dave Bowman), Гэри Локвуд (Dr. Frank Poole), Уильям Сильвестр (Dr. Heywood R. Floyd), Дэниэл Риктер (Moon-Watcher), Леонард Росситер (Dr. Andrei Smyslov), Маргарет Тайзэк (Elena), Роберт Битти (Dr. Ralph Halvorsen), Шон Салливан (Dr. Bill Michaels), Дуглас Рэйн (HAL 9000, озвучка), Фрэнк Миллер (Mission Controller, озвучка), Билл Уэстон (Astronaut), Эд Бишоп (Aries-1B Lunar Shuttle Captain)
Описание:
Кто мы? Какое место мы занимаем во Вселенной? Эти вопросы стоят перед героями фильма. Экипаж космического корабля С. С. Дискавери - капитаны Дэйв Боумэн, Фрэнк Пул и их бортовой компьютер ХЭЛ-9000 - должны исследовать район галактики и понять, почему инопланетяне следят за Землей. На этом пути их ждет множество неожиданных открытий...
Рейтинг:

MPAA: G - Нет возрастных ограничений
Качество: UHD BDRemux 2160p
Формат: MKV
Видео: HEVC HDR, 62.2 Mбит/с, 3840x2160, 23.976 кадр/с
Аудио №1: RUS DTS-HD MA / 5.1 / 48 kHz / 2103 kbps / 16 bit | Mvo - (Киномания)
Аудио №2: RUS AC3 / 5.1 / 48 kHz / 448 kbps / 16 bit | Mvo - (Киномания)
Аудио №3: RUS AC3 / 2.0 / 48 kHz / 256 kbps / 16 bit | Дубляж - (Варус Видео)
Аудио №4: RUS AC3 / 2.0 / 48 kHz / 192 kbps / 16 bit | DVO - (НТВ+)
Аудио №5: RUS AC3 / 5.1 / 48 kHz / 384 kbps / 16 bit | AVO - (Гаврилов)
Аудио №6: ENG DTS-HD MA / 5.1 / 48 kHz / 2197 kbps / 24 bit |ENG - (Original)
Навигация по главам: есть
General
Unique ID : 305108164306337705080436170302634352261 (0xE589B1EAF5D63CAFD0B69E99F4F85E85)
Complete name : C:UsersPublicVideosSample VideosFilmy2001.A.Space.Odyssey.1968.BDRemux.2160p.HDR.MediaClub.mkv
Format : Matroska
Format version : Version 4
File size : 70.4 GiB
Duration : 2 h 28 min
Overall bit rate mode : Variable
Overall bit rate : 67.7 Mb/s
Encoded date : UTC 2018-10-28 10:48:28
Writing application : mkvmerge v28.2.0 ('The Awakening') 64-bit
Writing library : libebml v1.3.6 + libmatroska v1.4.9
Cover : Yes
Attachments : cover.jpg

Video
ID : 1
Format : HEVC
Format/Info : High Efficiency Video Coding
Commercial name : HDR10
Format profile : Main 10@L5.1@High
Codec ID : V_MPEGH/ISO/HEVC
Duration : 2 h 28 min
Bit rate : 62.2 Mb/s
Width : 3 840 pixels
Height : 2 160 pixels
Display aspect ratio : 16:9
Frame rate mode : Constant
Frame rate : 23.976 (24000/1001) FPS
Color space : YUV
Chroma subsampling : 4:2:0 (Type 2)
Bit depth : 10 bits
Bits/(Pixel*Frame) : 0.313
Stream size : 64.6 GiB (92%)
Title : BDRemux.2160p.HDR by Silverok
Default : Yes
Forced : No
Color range : Limited
Color primaries : BT.2020
Transfer characteristics : PQ
Matrix coefficients : BT.2020 non-constant
Mastering display color primaries : BT.2020
Mastering display luminance : min: 0.0050 cd/m2, max: 1000 cd/m2
Maximum Content Light Level : 992 cd/m2
Maximum Frame-Average Light Level : 282 cd/m2

Audio #1
ID : 2
Format : DTS XLL
Format/Info : Digital Theater Systems
Commercial name : DTS-HD Master Audio
Codec ID : A_DTS
Duration : 2 h 28 min
Bit rate mode : Variable
Bit rate : 2 103 kb/s
Channel(s) : 6 channels
Channel layout : C L R Ls Rs LFE
Sampling rate : 48.0 kHz
Frame rate : 93.750 FPS (512 SPF)
Bit depth : 16 bits
Compression mode : Lossless
Delay relative to video : 244 ms
Stream size : 2.19 GiB (3%)
Title : Профессиональный многоголосый (Киномания)
Language : Russian
Default : Yes
Forced : No

Audio #2
ID : 3
Format : AC-3
Format/Info : Audio Coding 3
Commercial name : Dolby Digital
Codec ID : A_AC3
Duration : 2 h 28 min
Bit rate mode : Constant
Bit rate : 448 kb/s
Channel(s) : 6 channels
Channel layout : L R C LFE Ls Rs
Sampling rate : 48.0 kHz
Frame rate : 31.250 FPS (1536 SPF)
Bit depth : 16 bits
Compression mode : Lossy
Stream size : 477 MiB (1%)
Title : Профессиональный многоголосый (Киномания)
Language : Russian
Service kind : Complete Main
Default : No
Forced : No

Audio #3
ID : 4
Format : AC-3
Format/Info : Audio Coding 3
Commercial name : Dolby Digital
Codec ID : A_AC3
Duration : 2 h 28 min
Bit rate mode : Constant
Bit rate : 256 kb/s
Channel(s) : 2 channels
Channel layout : L R
Sampling rate : 48.0 kHz
Frame rate : 31.250 FPS (1536 SPF)
Bit depth : 16 bits
Compression mode : Lossy
Stream size : 273 MiB (0%)
Title : Дублированный (Варус Видео)
Language : Russian
Service kind : Complete Main
Default : No
Forced : No

Audio #4
ID : 5
Format : AC-3
Format/Info : Audio Coding 3
Commercial name : Dolby Digital
Codec ID : A_AC3
Duration : 2 h 28 min
Bit rate mode : Constant
Bit rate : 192 kb/s
Channel(s) : 2 channels
Channel layout : L R
Sampling rate : 48.0 kHz
Frame rate : 31.250 FPS (1536 SPF)
Bit depth : 16 bits
Compression mode : Lossy
Stream size : 204 MiB (0%)
Title : Профессиональный двухголосый (НТВ+)
Language : Russian
Service kind : Complete Main
Default : No
Forced : No

Audio #5
ID : 6
Format : AC-3
Format/Info : Audio Coding 3
Commercial name : Dolby Digital
Codec ID : A_AC3
Duration : 2 h 28 min
Bit rate mode : Constant
Bit rate : 384 kb/s
Channel(s) : 6 channels
Channel layout : L R C LFE Ls Rs
Sampling rate : 48.0 kHz
Frame rate : 31.250 FPS (1536 SPF)
Bit depth : 16 bits
Compression mode : Lossy
Stream size : 409 MiB (1%)
Title : Авторский (Гаврилов)
Language : Russian
Service kind : Complete Main
Default : No
Forced : No

Audio #6
ID : 7
Format : DTS XLL
Format/Info : Digital Theater Systems
Commercial name : DTS-HD Master Audio
Codec ID : A_DTS
Duration : 2 h 28 min
Bit rate mode : Variable
Bit rate : 2 197 kb/s
Channel(s) : 6 channels
Channel layout : C L R Ls Rs LFE
Sampling rate : 48.0 kHz
Frame rate : 93.750 FPS (512 SPF)
Bit depth : 16 bits
Compression mode : Lossless
Stream size : 2.28 GiB (3%)
Language : English
Default : No
Forced : No

Text #1
ID : 8
Format : UTF-8
Codec ID : S_TEXT/UTF8
Codec ID/Info : UTF-8 Plain Text
Duration : 2 h 20 min
Bit rate : 32 b/s
Count of elements : 641
Stream size : 33.1 KiB (0%)
Title : Full
Language : Russian
Default : Yes
Forced : No

Text #2
ID : 9
Format : UTF-8
Codec ID : S_TEXT/UTF8
Codec ID/Info : UTF-8 Plain Text
Duration : 1 h 31 min
Bit rate : 40 b/s
Count of elements : 641
Stream size : 26.8 KiB (0%)
Title : Full
Language : English
Default : No
Forced : No

Text #3
ID : 10
Format : UTF-8
Codec ID : S_TEXT/UTF8
Codec ID/Info : UTF-8 Plain Text
Duration : 2 h 17 min
Bit rate : 28 b/s
Count of elements : 667
Stream size : 28.3 KiB (0%)
Title : SDH
Default : No
Forced : No

Menu
00:00:00.000 : en:Overture
00:02:57.177 : en:Main Title
00:04:39.112 : en:The Dawn of Man
00:11:40.032 : en:Apparition and Revelation
00:16:58.017 : en:The Fittest
00:19:53.025 : en:To the Moon
00:25:29.027 : en:Voice Print Identification
00:27:38.156 : en:Squirt
00:29:29.601 : en:Great Big Mystery
00:33:46.024 : en:Off to Clavius
00:41:08.632 : en:Purpose of the Visit
00:45:37.568 : en:Deliberately Buried
00:50:56.553 : en:The Monolith
00:54:42.946 : en:Jupiter Mission
00:58:33.676 : en:The World Tonight
01:03:55.998 : en:Frank's Parents
01:06:05.294 : en:Sketches and Suspicions
01:12:10.659 : en:Removing the Ae35
01:18:51.893 : en:Human Error?
01:23:01.476 : en:Bad Feeling
01:27:02.217 : en:Intermission
01:27:49.264 : en:Entr'acte
01:30:07.735 : en:Cut Adrift
01:32:50.898 : en:Rescue Mission
01:38:35.576 : en:Terminated
01:40:47.082 : en:Open the Pod Bay Doors
01:45:35.495 : en:Emergency Airlock
01:49:41.575 : en:My Mind Is Going
01:55:19.746 : en:Prerecorded Briefing
01:57:06.185 : en:Jupiter...
02:01:28.281 : en:...and Beyond the Infinite
02:11:33.385 : en:Future Selves
02:17:57.602 : en:Star Child
02:20:33.425 : en:End Credits & Exit Music



Скачать 2001 год: Космическая одиссея через торрент https://b.radikal.ru/b07/1810/07/4fbf3294d768.png Скачать, смотреть онлайн 2001 год: Космическая одиссея бесплантно в хорошем качестве Описание: Кто мы? Какое место мы занимаем во Вселенной? Эти вопросы стоят перед героями фильма. Экипаж космического корабля С. С. Дискавери ... 10 10 1
Info! Золотая раздача, скачанное не засчитывается.
Торрент: Зарегистрирован [2018-10-28 13:18] · скачан: 46 раз
Статус: √ проверено
Размер: 70.45 GB
Как cкачать? Как скачать 2001 год: Космическая одиссея через торрент | UTorrent

28-11-2019 20:33  


Отключить вcю реклaмy на сайте, в т.ч. и в плеере онлайн просмотра!

    Дорогой пользователь! Огромная просьба, поблагодарите релизера, оцените раздачу и оставьте свои комментарий, если Вы скачали 2001 год: Космическая одиссея через торрент бесплатно!!
    Комментировать посты могут только пользователи прошедшие не сложную регистрацию
    Показать сообщения:    


    2001 год: Космическая одиссея через торрент
    Скачать бесплатно 2001 год: Космическая одиссея
    2001 год: Космическая одиссея скачать торрент
    2001 год: Космическая одиссея смотреть онлайн
    Cкачать фильм 2001 год: Космическая одиссея бесплатно
    2001 год: Космическая одиссея скачать торрент в хорошем качестве
    2001 год: Космическая одиссея смотреть онлайн бесплатно в хорошем качестве
    Вы не можете начинать темы
    Вы не можете отвечать на сообщения
    Вы не можете редактировать свои сообщения
    Вы не можете удалять свои сообщения
    Вы не можете голосовать в опросах
    Вы не можете прикреплять файлы к сообщениям
    Вы можете скачивать файлы
    2001 год: Космическая одиссея / 2001: A Space Odyssey [1968, фантастика, приключения, UHD BDRemux 2160p] MVO + Дубляж +DVO + AVO смотреть онлайн, скачать торрент picoco.icu