Достать ножи: Стеклянная луковица

MVO

Добыча

Дубляж

Уэнсдэй

1 сезон

Тор

Дубляж

13 клиническая

1 сезон

Жестокая ночь

MVO

Одни из нас

1 сезон

Deluxe

pack

Рекомендуем

30

Пиратка

ВАЖНО

ВАЖНО

Ghostwire

Пиратка

jed

RePack

nioh2

RePack

RDR2

RePack

NEED FOR SPEED™ PAYBACK

RePack

скачать торрент

Кинопоиск HD

Острые козырьки 6 сезон

6 сезон

FAR CRY 6

RePack

скачать торрент

Лицензия

скачать торрент

MVO

1

1 сезон

скачать торрент

1 сезон

скачать торрент

Лицензия

  

Шпион, который меня кинул / The Spy Who Dumped Me (Сюзанна Фогель) [2018, боевик, комедия, приключения, UHD BDRip 2160p] [SDR] Дубляж - [iTunes]

Шпион, который меня кинул через торрент piratbit.org

Размер: 36.63 GB | Добавлен: 4 года 3 мес. назад | Торрент скачан:72 раза
Смотреть онлайн | Скачать | Поддержите нас   

30-10-2018 06:35 Шпион, который меня кинул Скачать торрент  

Шпион, который меня кинул / The Spy Who Dumped Me«Минимум опыта. Максимум последствий»
Год выпуска: 2018
Страна: США, Канада
Жанр: боевик, комедия, приключения
Продолжительность: 01:56:56
Перевод: Дублированный | iTunes
Субтитры: Английские (полные, SDH)
Режиссер: Сюзанна Фогель
В ролях:

Мила Кунис (Audrey), Кейт МакКиннон (Morgan), Сэм Хьюэн (Sebastian), Джастин Теру (Drew), Джиллиан Андерсон (Wendy), Хасан Минхадж (Duffer), Иванна Сахно (Nadedja), Фред Меламед (Roger), Бланка Дьёрфи-Тот (Little Girl), Вильма Сечи (Vendor), Лолли Адефоп (Tess), Дастин Демри-Бёрнс (Viktor)
Описание:
Одри и Морган, лучшие подруги из Лос-Анджелеса, неожиданно оказываются в эпицентре международного заговора, когда бывший Одри заявляется к ней с толпой идущих по следу кровожадных убийц. Удивляясь сами себе, девушки берутся за нелегкое дело спасения мира. Их ждет полная опасностей - и киллеров - шпионская гонка по всей Европе, где на пути им встречается очень подозрительный, но такой обаятельный британский агент...
Рейтинг:

MPAA: R - Лицам до 17 лет обязательно присутствие взрослого
Качество: UHD BDRip 2160p | SDR
Формат: MKV
Видео: HEVC, 43800 Кбит/c, 3840x1606, 23.976 кадр/с, 10 bit
Аудио #1: 48 kHz, AC3 Dolby Digital, 3/2 (L,C,R,l,r) + LFE ch, 384.00 kbps avg | RUS (iTunes)
Аудио #2: 48 kHz, AC3 Dolby Digital, 3/2 (L,C,R,l,r) + LFE ch, 640.00 kbps avg | ENG
Навигация по главам: есть
Общее
Уникальный идентификатор : 240429716260007661983363767335010032189 (0xB4E11439C63FC6A285058A7E5B45DA3D)
Полное имя : F:\The.Spy.Who.Dumped.Me.2018.2160p.BluRay.x265.10bit.SDR.Master5.mkv
Формат : Matroska
Версия формата : Version 4
Размер файла : 36,6 Гбайт
Продолжительность : 1 ч. 56 м.
Общий поток : 44,8 Мбит/сек
Название фильма : The.Spy.Who.Dumped.Me.2018.2160p.BluRay.x265.10bit.SDR.Master5
Дата кодирования : UTC 2018-10-29 18:58:10
Программа кодирования : mkvmerge v7.9.0 ('Birds') 64bit
Библиотека кодирования : libebml v1.3.1 + libmatroska v1.4.2
Обложка : Yes
Attachments : small_cover.jpg / small_cover_land.jpg / cover.jpg / cover_land.jpg

Видео
Идентификатор : 1
Формат : HEVC
Формат/Информация : High Efficiency Video Coding
Профиль формата : Main 10@L5.1@High
Идентификатор кодека : V_MPEGH/ISO/HEVC
Продолжительность : 1 ч. 56 м.
Битрейт : 43,8 Мбит/сек
Ширина : 3840 пикселей
Высота : 1606 пикселей
Соотношение сторон : 2,40:1
Режим частоты кадров : Постоянный
Частота кадров : 23,976 (24000/1001) кадра/сек
Цветовое пространство : YUV
Субдискретизация насыщенности : 4:2:0
Битовая глубина : 10 бит
Бит/(Пиксели*Кадры) : 0.296
Размер потока : 35,8 Гбайт (98%)
Заголовок : The.Spy.Who.Dumped.Me.2018.2160p.BluRay.x265.10bit.SDR.Master5
Библиотека кодирования : x265 2.8+54-79c76e42cb28:[Windows][GCC 7.3.1][64 bit] 10bit
Настройки программы : cpuid=1111039 / frame-threads=16 / numa-pools=24,24,24,24 / wpp / no-pmode / no-pme / no-psnr / no-ssim / log-level=2 / input-csp=1 / input-res=3840x1606 / interlace=0 / total-frames=0 / level-idc=51 / high-tier=1 / uhd-bd=0 / ref=3 / no-allow-non-conformance / repeat-headers / annexb / aud / hrd / info / hash=0 / no-temporal-layers / no-open-gop / min-keyint=1 / keyint=24 / gop-lookahead=0 / bframes=4 / b-adapt=2 / b-pyramid / bframe-bias=0 / rc-lookahead=25 / lookahead-slices=4 / scenecut=40 / radl=0 / no-intra-refresh / ctu=64 / min-cu-size=8 / no-rect / no-amp / max-tu-size=32 / tu-inter-depth=1 / tu-intra-depth=1 / limit-tu=0 / rdoq-level=0 / dynamic-rd=0.00 / no-ssim-rd / signhide / no-tskip / nr-intra=0 / nr-inter=0 / no-constrained-intra / strong-intra-smoothing / max-merge=2 / limit-refs=3 / no-limit-modes / me=1 / subme=2 / merange=57 / temporal-mvp / weightp / no-weightb / no-analyze-src-pics / deblock=0:0 / no-sao / no-sao-non-deblock / rd=3 / no-early-skip / rskip / no-fast-intra / no-tskip-fast / no-cu-lossless / no-b-intra / no-splitrd-skip / rdpenalty=0 / psy-rd=2.00 / psy-rdoq=0.00 / no-rd-refine / no-lossless / cbqpoffs=0 / crqpoffs=0 / rc=crf / crf=16.0 / qcomp=0.60 / qpstep=4 / stats-write=0 / stats-read=0 / vbv-maxrate=160000 / vbv-bufsize=160000 / vbv-init=0.9 / crf-max=0.0 / crf-min=0.0 / ipratio=1.40 / pbratio=1.30 / aq-mode=1 / aq-strength=1.00 / cutree / zone-count=0 / no-strict-cbr / qg-size=32 / no-rc-grain / qpmax=69 / qpmin=0 / no-const-vbv / sar=1 / overscan=0 / videoformat=5 / range=0 / colorprim=2 / transfer=2 / colormatrix=2 / chromaloc=0 / display-window=0 / max-cll=0,0 / min-luma=0 / max-luma=1023 / log2-max-poc-lsb=8 / vui-timing-info / vui-hrd-info / slices=1 / opt-qp-pps / opt-ref-list-length-pps / no-multi-pass-opt-rps / scenecut-bias=0.05 / no-opt-cu-delta-qp / no-aq-motion / no-hdr / no-hdr-opt / no-dhdr10-opt / no-idr-recovery-sei / analysis-reuse-level=5 / scale-factor=0 / refine-intra=0 / refine-inter=0 / refine-mv=0 / no-limit-sao / ctu-info=0 / no-lowpass-dct / refine-mv-type=0 / copy-pic=1 / max-ausize-factor=1.0 / no-dynamic-refine / no-single-sei
Default : Да
Forced : Нет

Аудио #1
Идентификатор : 2
Формат : AC-3
Формат/Информация : Audio Coding 3
Коммерческое название : Dolby Digital
Идентификатор кодека : A_AC3
Продолжительность : 1 ч. 56 м.
Вид битрейта : Постоянный
Битрейт : 384 Кбит/сек
Каналы : 6 каналов
Channel layout : L R C LFE Ls Rs
Частота : 48,0 КГц
Частота кадров : 31,250 кадров/сек (1536 SPF)
Битовая глубина : 16 бит
Метод сжатия : С потерями
Размер потока : 321 Мбайт (1%)
Заголовок : iTunes
Язык : Russian
ServiceKind/String : Complete Main
Default : Да
Forced : Да

Аудио #2
Идентификатор : 3
Формат : AC-3
Формат/Информация : Audio Coding 3
Коммерческое название : Dolby Digital
Идентификатор кодека : A_AC3
Продолжительность : 1 ч. 56 м.
Вид битрейта : Постоянный
Битрейт : 640 Кбит/сек
Каналы : 6 каналов
Channel layout : L R C LFE Ls Rs
Частота : 48,0 КГц
Частота кадров : 31,250 кадров/сек (1536 SPF)
Битовая глубина : 16 бит
Метод сжатия : С потерями
Размер потока : 535 Мбайт (1%)
Язык : English
ServiceKind/String : Complete Main
Default : Нет
Forced : Нет

Текст #1
Идентификатор : 4
Формат : UTF-8
Идентификатор кодека : S_TEXT/UTF8
Идентификатор кодека/Информация : UTF-8 Plain Text
Продолжительность : 1 ч. 48 м.
Битрейт : 79 бит/сек
ElementCount : 1958
Размер потока : 63,1 Кбайт (0%)
Заголовок : Full
Язык : English
Default : Нет
Forced : Нет

Текст #2
Идентификатор : 5
Формат : UTF-8
Идентификатор кодека : S_TEXT/UTF8
Идентификатор кодека/Информация : UTF-8 Plain Text
Продолжительность : 1 ч. 48 м.
Битрейт : 80 бит/сек
ElementCount : 2086
Размер потока : 64,1 Кбайт (0%)
Заголовок : SDH
Язык : English
Default : Нет
Forced : Нет

Текст #3
Идентификатор : 6
Формат : UTF-8
Идентификатор кодека : S_TEXT/UTF8
Идентификатор кодека/Информация : UTF-8 Plain Text
Продолжительность : 1 ч. 49 м.
Битрейт : 131 бит/сек
ElementCount : 2394
Размер потока : 106 Кбайт (0%)
Заголовок : SDH Colored
Язык : English
Default : Нет
Forced : Нет

Меню
00:00:00.000 : en:Chapter 01
00:07:32.410 : en:Chapter 02
00:14:08.097 : en:Chapter 03
00:20:44.535 : en:Chapter 04
00:28:28.040 : en:Chapter 05
00:35:15.864 : en:Chapter 06
00:41:22.438 : en:Chapter 07
00:47:24.675 : en:Chapter 08
00:52:19.136 : en:Chapter 09
01:02:37.295 : en:Chapter 10
01:09:52.146 : en:Chapter 11
01:14:41.644 : en:Chapter 12
01:23:34.551 : en:Chapter 13
01:26:44.449 : en:Chapter 14
01:41:58.612 : en:Chapter 15
01:46:01.313 : en:Chapter 16



Скачать Шпион, который меня кинул через торрент https://d.radikal.ru/d20/1810/0c/5eabf9bac1b4.jpg Скачать, смотреть онлайн Шпион, который меня кинул бесплантно в хорошем качестве Описание: Одри и Морган, лучшие подруги из Лос-Анджелеса, неожиданно оказываются в эпицентре международного заговора, когда бывший Одри ... 10 10 1
Info! Золотая раздача, скачанное не засчитывается.
Торрент: Зарегистрирован [2018-10-30 06:35] · скачан: 72 раз
Статус: √ проверено
Размер: 36.63 GB
Как cкачать? Как скачать Шпион, который меня кинул через торрент | UTorrent

% Раздел Тема Автор DL S | L
Фильмы 2018 [DVDrip, WEB-DLRip, HDrip] (DUB, MVO) [ 1.47 GB ] Шпион, который меня кинул / The Spy Who Dumped Me | iTunes | HDRip bober100 Скачать
1 | 0
Фильмы [HD 720p, 1080p] (Хороший звук DUB, MVO) [ 8.22 GB ] Шпион, который меня кинул / The Spy Who Dumped Me | iTunes | 1080p bober100 Скачать
1 | 0
Фильмы 2018 [DVDrip, WEB-DLRip, HDrip] (DUB, MVO) [ 2.13 GB ] Шпион, который меня кинул / The Spy Who Dumped Me | Лицензия | BDRip Twi7ter Скачать
4 | 0
Фильмы 2018 [DVDrip, WEB-DLRip, HDrip] (DUB, MVO) [ 1.41 GB ] Шпион, который меня кинул / The Spy Who Dumped Me | Лицензия | BDRip Twi7ter Скачать
1 | 0
Фильмы 2018 [DVDrip, WEB-DLRip, HDrip] (DUB, MVO) [ 2.18 GB ] Шпион, который меня кинул / The Spy Who Dumped Me | iTunes | HDRip Леонид Ильич Скачать
1 | 0
Фильмы [HD 720p, 1080p] (Хороший звук DUB, MVO) [ 6.4 GB ] Шпион, который меня кинул / The Spy Who Dumped Me | iTunes | 1080p, HEVC Дубляж (iTunes Мичман37 Скачать
1 | 0
Фильмы 2018 [DVDrip, WEB-DLRip, HDrip] (DUB, MVO) [ 711 MB ] Шпион, который меня кинул / The Spy Who Dumped Me | iTunes" | HDRip, Дубляж "iTunes" coc900 Скачать
1 | 0

28-11-2019 20:33  


Отключить вcю реклaмy на сайте, в т.ч. и в плеере онлайн просмотра!


    Дорогой пользователь! Огромная просьба, поблагодарите релизера, оцените раздачу и оставьте свои комментарий, если Вы скачали Шпион, который меня кинул через торрент бесплатно!!
    Комментировать посты могут только пользователи прошедшие не сложную регистрацию
    Показать сообщения:    


    Шпион, который меня кинул через торрент
    Скачать бесплатно Шпион, который меня кинул
    Шпион, который меня кинул скачать торрент
    Шпион, который меня кинул смотреть онлайн
    Cкачать фильм Шпион, который меня кинул бесплатно
    Шпион, который меня кинул скачать торрент в хорошем качестве
    Шпион, который меня кинул смотреть онлайн бесплатно в хорошем качестве
    Вы не можете начинать темы
    Вы не можете отвечать на сообщения
    Вы не можете редактировать свои сообщения
    Вы не можете удалять свои сообщения
    Вы не можете голосовать в опросах
    Вы не можете прикреплять файлы к сообщениям
    Вы можете скачивать файлы
    Шпион, который меня кинул / The Spy Who Dumped Me [2018, боевик, комедия, приключения, UHD BDRip 2160p] [SDR] Дубляж - [iTunes] смотреть онлайн, скачать торрент picoco.icu