Доктор Стрэндж

Лицензия

Добыча

Дубляж

Уэнсдэй

1 сезон

Тор

Дубляж

В эфире

Дубляж

Там, где раки поют

MVO

Властелин колец

1 сезон

Deluxe

pack

Рекомендуем

30

Пиратка

ВАЖНО

ВАЖНО

Ghostwire

Пиратка

jed

RePack

nioh2

RePack

RDR2

RePack

NEED FOR SPEED™ PAYBACK

RePack

скачать торрент

Кинопоиск HD

Острые козырьки 6 сезон

6 сезон

FAR CRY 6

RePack

скачать торрент

Лицензия

скачать торрент

MVO

1

1 сезон

скачать торрент

1 сезон

скачать торрент

Лицензия

  

Рожденный дважды / Venuto al mondo (Серджио Кастеллитто) [2012 г., драма, мелодрама, военный, BDRip 1080p, HEVC (10bit), DVO (Сладкая парочка)]

Рожденный дважды через торрент piratbit.org

Размер: 4.79 GB | Добавлен: 4 года 1 мес. назад | Торрент скачан:35 раз
Смотреть онлайн | Скачать   

30-10-2018 18:47 Рожденный дважды Скачать торрент  

Рожденный дважды / Venuto al mondo
Год выпуска: 2012
Страна: Италия, Испания
Жанр: драма, мелодрама, военный
Продолжительность: 02:09:14
Перевод: Любительский (двухголосый)
Субтитры: английские (форсированные, полные)

Режиссер: Серджио Кастеллитто

rating

В ролях: Пенелопа Крус, Эмиль Хирш, Аднан Хаскович, Саадет Аксой

Описание: Главная героиня, итальянка Джемма, отправляется вместе со своим 16-летним сыном Пьетро в Сараево. Она хочет показать Пьетро его родной город и рассказать о его отце Диего, которого он никогда не знал. В аэропорту Джемму встречает ее давний друг Гойко, который в 1984 году во время зимней Олимпиады познакомил ее с фотографом из Генуи Диего — любовью всей ее жизни.
Доп. информация: -
H.265/HEVC (High Efficiency Video Coding) - это новый стандарт кодирования видео.
- Стандарт H.265/HEVC является логическим продолжением стандарта
H.264/AVC (Advanced Video Coding), и характеризуется более эффективными
алгоритмами сжатия, а также поддержкой высокого разрешения вплоть до 8K UHD
(8192x4320). Первая версия стандарта H.265 была опубликована в начале 2013 года.
- Рипы в фомате HEVC поддерживается не всеми аппаратными проигрывателями.
- Для корректного воспроизведения может потребоваться обновление ПО.
- Владельцам несовместимого железа просьба не беспокоить,
есть альтернативные релизы.
Качество: BDRip 1080p
Формат: MKV
Видео кодек: H.265
Аудио кодек: AC3
Видео: 1920x1040, ~4667 Kbps
Аудио#1: AC3, 2 ch, 192 Kbps - AVO, (Сладкая парочка)
Аудио#2: AC3, 6 ch, 448 Kbps - Английский

Релиз от: RG
Общее
Уникальный идентификатор : 158339660859035301348958441784062953226 (0x771F1C03298F7B14ACF82A7E4606C70A)
Полное имя : F:\РАЗДАЧИ\Рожденный дважды. 2012. 1080p. HEVC. 10 bit..mkv
Формат : Matroska
Версия формата : Version 4 / Version 2
Размер файла : 4,79 Гбайт
Продолжительность : 2 ч. 9 м.
Общий поток : 5309 Кбит/сек
Дата кодирования : UTC 2018-10-25 17:56:10
Программа кодирования : mkvmerge v28.1.0 ('Morning Child') 64-bit
Библиотека кодирования : libebml v1.3.6 + libmatroska v1.4.9
Обложка : Yes
Attachments : cover.jpg

Видео
Идентификатор : 1
Формат : HEVC
Формат/Информация : High Efficiency Video Coding
Профиль формата : Main 10@L4@Main
Идентификатор кодека : V_MPEGH/ISO/HEVC
Продолжительность : 2 ч. 9 м.
Битрейт : 4667 Кбит/сек
Ширина : 1920 пикселей
Высота : 1040 пикселей
Соотношение сторон : 1,85:1
Режим частоты кадров : Постоянный
Частота кадров : 24,000 кадра/сек
Цветовое пространство : YUV
Субдискретизация насыщенности : 4:2:0
Битовая глубина : 10 бит
Бит/(Пиксели*Кадры) : 0.097
Размер потока : 4,21 Гбайт (88%)
Библиотека кодирования : x265 2.8+40-0106f9f2f867:[Windows][GCC 7.3.0][64 bit] 10bit
Настройки программы : cpuid=1111039 / frame-threads=3 / numa-pools=8 / wpp / no-pmode / no-pme / no-psnr / no-ssim / log-level=2 / input-csp=1 / input-res=1920x1040 / interlace=0 / total-frames=186096 / level-idc=0 / high-tier=1 / uhd-bd=0 / ref=4 / no-allow-non-conformance / no-repeat-headers / annexb / no-aud / no-hrd / info / hash=0 / no-temporal-layers / open-gop / min-keyint=24 / keyint=250 / gop-lookahead=0 / bframes=4 / b-adapt=2 / b-pyramid / bframe-bias=0 / rc-lookahead=25 / lookahead-slices=4 / scenecut=40 / radl=0 / no-intra-refresh / ctu=64 / min-cu-size=8 / rect / no-amp / max-tu-size=32 / tu-inter-depth=1 / tu-intra-depth=1 / limit-tu=0 / rdoq-level=2 / dynamic-rd=0.00 / no-ssim-rd / signhide / no-tskip / nr-intra=0 / nr-inter=0 / no-constrained-intra / strong-intra-smoothing / max-merge=3 / limit-refs=3 / limit-modes / me=3 / subme=3 / merange=57 / temporal-mvp / weightp / no-weightb / no-analyze-src-pics / deblock=0:0 / sao / no-sao-non-deblock / rd=4 / no-early-skip / rskip / no-fast-intra / no-tskip-fast / no-cu-lossless / no-b-intra / no-splitrd-skip / rdpenalty=0 / psy-rd=2.00 / psy-rdoq=1.00 / no-rd-refine / no-lossless / cbqpoffs=0 / crqpoffs=0 / rc=abr / bitrate=4666 / qcomp=0.60 / qpstep=4 / stats-write=0 / stats-read=2 / cplxblur=20.0 / qblur=0.5 / ipratio=1.40 / pbratio=1.30 / aq-mode=3 / aq-strength=1.00 / cutree / zone-count=0 / no-strict-cbr / qg-size=32 / no-rc-grain / qpmax=69 / qpmin=0 / no-const-vbv / sar=0 / overscan=0 / videoformat=5 / range=0 / colorprim=2 / transfer=2 / colormatrix=2 / chromaloc=0 / display-window=0 / max-cll=0,0 / min-luma=0 / max-luma=1023 / log2-max-poc-lsb=8 / vui-timing-info / vui-hrd-info / slices=1 / no-opt-qp-pps / no-opt-ref-list-length-pps / multi-pass-opt-rps / scenecut-bias=0.05 / no-opt-cu-delta-qp / aq-motion / no-hdr / no-hdr-opt / no-dhdr10-opt / no-idr-recovery-sei / analysis-reuse-level=5 / scale-factor=0 / refine-intra=0 / refine-inter=0 / refine-mv=0 / no-limit-sao / ctu-info=0 / no-lowpass-dct / refine-mv-type=0 / copy-pic=1 / max-ausize-factor=1.0 / no-dynamic-refine / no-single-sei
Default : Да
Forced : Нет

Аудио #1
Идентификатор : 2
Формат : AC-3
Формат/Информация : Audio Coding 3
Идентификатор кодека : A_AC3
Продолжительность : 2 ч. 9 м.
Вид битрейта : Постоянный
Битрейт : 192 Кбит/сек
Каналы : 2 канала
Расположение каналов : Front: L R
Частота : 48,0 КГц
Частота кадров : 31,250 кадров/сек (1536 SPF)
Битовая глубина : 16 бит
Метод сжатия : С потерями
Задержка видео : 8 мс.
Размер потока : 177 Мбайт (4%)
Заголовок : Любительское (многоголосое) [sweet couple]
Язык : Russian
ServiceKind/String : Complete Main
Default : Да
Forced : Нет

Аудио #2
Идентификатор : 3
Формат : AC-3
Формат/Информация : Audio Coding 3
Идентификатор кодека : A_AC3
Продолжительность : 2 ч. 9 м.
Вид битрейта : Постоянный
Битрейт : 448 Кбит/сек
Каналы : 6 каналов
Расположение каналов : Front: L C R, Side: L R, LFE
Частота : 48,0 КГц
Частота кадров : 31,250 кадров/сек (1536 SPF)
Битовая глубина : 16 бит
Метод сжатия : С потерями
Задержка видео : 8 мс.
Размер потока : 414 Мбайт (8%)
Язык : English
ServiceKind/String : Complete Main
Default : Нет
Forced : Нет

Текст #1
Идентификатор : 4
Формат : UTF-8
Идентификатор кодека : S_TEXT/UTF8
Идентификатор кодека/Информация : UTF-8 Plain Text
Продолжительность : 1 ч. 59 м.
Битрейт : 7 бит/сек
ElementCount : 276
Размер потока : 6,28 Кбайт (0%)
Заголовок : Forced
Язык : English
Default : Нет
Forced : Да

Текст #2
Идентификатор : 5
Формат : UTF-8
Идентификатор кодека : S_TEXT/UTF8
Идентификатор кодека/Информация : UTF-8 Plain Text
Продолжительность : 1 ч. 59 м.
Битрейт : 31 бит/сек
ElementCount : 800
Размер потока : 27,5 Кбайт (0%)
Язык : English
Default : Нет
Forced : Нет

Меню
00:00:00.000 : en:Chapter 01
00:09:59.791 : en:Chapter 02
00:19:59.791 : en:Chapter 03
00:30:00.125 : en:Chapter 04
00:39:59.750 : en:Chapter 05
00:50:00.333 : en:Chapter 06
01:00:00.375 : en:Chapter 07
01:09:59.708 : en:Chapter 08
01:20:00.333 : en:Chapter 09
01:29:59.833 : en:Chapter 10
01:39:59.791 : en:Chapter 11
01:49:59.875 : en:Chapter 12




Скачать Рожденный дважды через торрент https://d.radikal.ru/d43/1810/41/44aedf15f3a0.jpg Скачать, смотреть онлайн Рожденный дважды бесплантно в хорошем качестве Описание: Главная героиня, итальянка Джемма, отправляется вместе со своим 16-летним сыном Пьетро в Сараево. Она хочет показать Пьетро его ... 10 10 2
Торрент: Зарегистрирован [2018-10-30 18:47] · скачан: 35 раз
Статус: T временная
Размер: 4.79 GB
Как cкачать? Как скачать Рожденный дважды через торрент | UTorrent

% Раздел Тема Автор DL S | L
Фильмы 2012 [ 2.05 GB ] Рожденный дважды / Venuto al mondo | Рожденный дважды / Venuto al mondo | HDRip,Любительский (двухголосый KEYS Скачать
1 | 0

28-11-2019 20:33  


Отключить вcю реклaмy на сайте, в т.ч. и в плеере онлайн просмотра!

30-10-2018 18:55 Рожденный дважды Скачать торрент  

    Дорогой пользователь! Огромная просьба, поблагодарите релизера, оцените раздачу и оставьте свои комментарий, если Вы скачали Рожденный дважды через торрент бесплатно!!
    Комментировать посты могут только пользователи прошедшие не сложную регистрацию
    Показать сообщения:    


    Рожденный дважды через торрент
    Скачать бесплатно Рожденный дважды
    Рожденный дважды скачать торрент
    Рожденный дважды смотреть онлайн
    Cкачать фильм Рожденный дважды бесплатно
    Рожденный дважды скачать торрент в хорошем качестве
    Рожденный дважды смотреть онлайн бесплатно в хорошем качестве
    Вы не можете начинать темы
    Вы не можете отвечать на сообщения
    Вы не можете редактировать свои сообщения
    Вы не можете удалять свои сообщения
    Вы не можете голосовать в опросах
    Вы не можете прикреплять файлы к сообщениям
    Вы можете скачивать файлы
    Рожденный дважды / Venuto al mondo [2012 г., драма, мелодрама, военный, BDRip 1080p, HEVC , DVO ] смотреть онлайн, скачать торрент picoco.icu