Достать ножи: Стеклянная луковица

MVO

Добыча

Дубляж

Уэнсдэй

1 сезон

Тор

Дубляж

13 клиническая

1 сезон

Жестокая ночь

MVO

Одни из нас

1 сезон

Deluxe

pack

Рекомендуем

30

Пиратка

ВАЖНО

ВАЖНО

Ghostwire

Пиратка

jed

RePack

nioh2

RePack

RDR2

RePack

NEED FOR SPEED™ PAYBACK

RePack

скачать торрент

Кинопоиск HD

Острые козырьки 6 сезон

6 сезон

FAR CRY 6

RePack

скачать торрент

Лицензия

скачать торрент

MVO

1

1 сезон

скачать торрент

1 сезон

скачать торрент

Лицензия

  

Чужие среди нас / They Live (Джон Карпентер) [1988, ужасы, фантастика, боевик, UHD BDRip 2160p] MVO + 2xAVO

Чужие среди нас через торрент piratbit.org

Размер: 30.95 GB | Добавлен: 4 года 3 мес. назад | Торрент скачан:14 раз
Смотреть онлайн | Скачать | Поддержите нас   

02-11-2018 15:12 Чужие среди нас Скачать торрент  

Чужие среди нас / They Live

Год выпуска: 1988
Страна: США
Жанр: ужасы, фантастика, боевик, триллер
Продолжительность: 01:34:20
Перевод: Профессиональный многоголосый, авторский
Субтитры: Русские, английские
Режиссер: Джон Карпентер
В ролях:

Родди Пайпер (Nada), Кит Дэвид (Frank), Мег Фостер (Holly), Джордж «Бак» Флауэр (Drifter), Питер Джейсон (Gilbert), Рэймонд Сейнт-Жак (Street Preacher), Джейсон Робардс III (Family Man), Джон Лоуренс (Bearded Man), Сьюзэн Барнс (Brown Haired Woman), Сай Ричардсон (Black Revolutionary), Уэнди Брэйнард (Family Man's Daughter), Люсиль Мередит (Female Interviewer)
Описание:
Однажды простой рабочий-строитель Нейда, которому не очень везёт в жизни, находит необычные солнечные очки. Надев их, он получает возможность увидеть мир таким, какой он есть.
Рейтинг:

MPAA: R - Лицам до 17 лет обязательно присутствие взрослого
Качество: UHD BDRip 2160p
Формат: MKV
Видео: HEVC, HDR, 35800 Кбит/c, 3840x1634, 24 Кадр/с, 10 bit
Аудио №1: RUS DTS-HD MA / 5.1 / 48 kHz / 2258 kbps / 16 bit (DTS Core: 5.1 / 48 kHz / 1509 kbps / 16-bit)|-|Многоголосый закадровый, CP Digital|
Аудио №2: RUS DTS-HD MA / 5.1 / 48 kHz / 2262 kbps / 16 bit (DTS Core: 5.1 / 48 kHz / 1509 kbps / 16-bit)|-|Одноголосый закадровый, Ю.Живов|
Аудио №3: RUS DTS-HD MA / 5.1 / 48 kHz / 2259 kbps / 16 bit (DTS Core: 5.1 / 48 kHz / 1509 kbps / 16-bit)|-|Одноголосый закадровый, В.Горчаков|
Аудио №4: GER DTS-HD MA / 2.0 / 48 kHz / 2142 kbps / 24 bit (DTS Core: 5.1 / 48 kHz / 1509 kbps / 24-bit)|-|Дубляж|
Аудио №5: ENG DTS-HD MA / 5.1 / 48 kHz / 2142 kbps / 24 bit (DTS Core: 5.1 / 48 kHz / 1509 kbps / 24-bit)|-|Original|
Навигация по главам: есть

Знаете ли вы, что...
* Имя главного героя ни разу не упоминается в фильме и в титрах герой Родди Пайпера значится как «Nada» (скорее под фамилией) — что по-испански означает «ничто».
* Роль Фрэнка писалась специально под Кита Дэвида, который снимался у Карпентера в фильме «Нечто».
* Простенькая сцена драки Фрэнка и Нады из-за нежелания Фрэнка надеть «волшебные очки» вместо 20 секунд по замыслу режиссёра превратилась в 5 минутное побоище..
* В сцене, в банке, где главный герой Нада выборочно расстреливает пришельцев, видимых через очки, он произносит фразу: «I come here to chew bubble gum and kick ass, but i’m all out of bubble gum» («Я пришел сюда пожевать жвачку и надрать задницы, и всю жвачку я уже пережевал»). Позже эту фразу можно услышать в игровой серии, носящей название главного героя, Дюк Нюкем. На самом деле, данная фраза принадлежит исполнителю главной роли — Роди Пайперу, который в свою очередь является известным спортсменом в мире реслинга, участвовавшим в соренованиях Wrestlemania III, где его и заметил Джон Карпентер.
* В сцене, когда главный герой впервые встречает пришельца, которого он различает через очки, тот покупает газету. Если обратить внимание, то можно увидеть, что пришелец два раза берёт сдачу (до и после того, как Нада одевает очки).
* Сюжет фильма, а также название романа подозрительно напоминают рассказ Стивена Кинга «Люди десяти часов утра», который рассказывает о заядлом курильщике (10 часов утра в США традиционно считаются временем перекура), который в один прекрасный день начинает видеть вокруг себя не только людей, но и монстров.
Общее
Уникальный идентификатор : 185557153002378307325634324315804575342 (0x8B9901FB00C72AA5A127B8A401C0A66E)
Полное имя : F:\They.Live.1988.2160p.BDRip.10bit.HEVC.HDR.4K.x265.Master5.mkv
Формат : Matroska
Версия формата : Version 4
Размер файла : 31,0 Гбайт
Продолжительность : 1 ч. 34 м.
Режим общего битрейта : Переменный
Общий поток : 46,9 Мбит/сек
Название фильма : They.Live.1988.2160p.BDRip.10bit.HEVC.HDR.4K.x265.Master5
Дата кодирования : UTC 2018-11-02 08:54:56
Программа кодирования : mkvmerge v7.9.0 ('Birds') 64bit
Библиотека кодирования : libebml v1.3.1 + libmatroska v1.4.2
Обложка : Yes
Attachments : cover.jpg

Видео
Идентификатор : 1
Формат : HEVC
Формат/Информация : High Efficiency Video Coding
Коммерческое название : HDR10
Профиль формата : Main 10@L5.1@High
Идентификатор кодека : V_MPEGH/ISO/HEVC
Продолжительность : 1 ч. 34 м.
Битрейт : 35,8 Мбит/сек
Ширина : 3840 пикселей
Высота : 1634 пикселя
Соотношение сторон : 2,35:1
Режим частоты кадров : Постоянный
Частота кадров : 24,000 кадра/сек
Цветовое пространство : YUV
Субдискретизация насыщенности : 4:2:0 (Type 2)
Битовая глубина : 10 бит
Бит/(Пиксели*Кадры) : 0.238
Размер потока : 23,6 Гбайт (76%)
Заголовок : They.Live.1988.2160p.BDRip.10bit.HEVC.HDR.4K.x265.Master5
Библиотека кодирования : x265 2.8+58-d17bc7714ed2:[Windows][GCC 8.2.0][64 bit] 10bit
Настройки программы : cpuid=1111039 / frame-threads=5 / numa-pools=36 / wpp / no-pmode / no-pme / no-psnr / no-ssim / log-level=2 / input-csp=1 / input-res=3840x1634 / interlace=0 / total-frames=136009 / level-idc=51 / high-tier=1 / uhd-bd=0 / ref=4 / no-allow-non-conformance / repeat-headers / annexb / aud / hrd / info / hash=0 / no-temporal-layers / no-open-gop / min-keyint=24 / keyint=240 / gop-lookahead=0 / bframes=4 / b-adapt=2 / b-pyramid / bframe-bias=0 / rc-lookahead=25 / lookahead-slices=4 / scenecut=40 / radl=0 / no-intra-refresh / ctu=64 / min-cu-size=8 / rect / no-amp / max-tu-size=32 / tu-inter-depth=1 / tu-intra-depth=1 / limit-tu=0 / rdoq-level=2 / dynamic-rd=0.00 / no-ssim-rd / signhide / no-tskip / nr-intra=0 / nr-inter=0 / no-constrained-intra / no-strong-intra-smoothing / max-merge=3 / limit-refs=3 / limit-modes / me=3 / subme=3 / merange=57 / temporal-mvp / weightp / no-weightb / no-analyze-src-pics / deblock=-3:-3 / no-sao / no-sao-non-deblock / rd=4 / no-early-skip / rskip / no-fast-intra / no-tskip-fast / no-cu-lossless / no-b-intra / no-splitrd-skip / rdpenalty=0 / psy-rd=2.00 / psy-rdoq=1.00 / no-rd-refine / no-lossless / cbqpoffs=0 / crqpoffs=0 / rc=crf / crf=18.4 / qcomp=0.60 / qpstep=4 / stats-write=0 / stats-read=0 / vbv-maxrate=160000 / vbv-bufsize=160000 / vbv-init=0.9 / crf-max=0.0 / crf-min=0.0 / ipratio=1.40 / pbratio=1.30 / aq-mode=1 / aq-strength=1.00 / cutree / zone-count=0 / no-strict-cbr / qg-size=32 / no-rc-grain / qpmax=69 / qpmin=0 / no-const-vbv / sar=1 / overscan=0 / videoformat=5 / range=0 / colorprim=9 / transfer=16 / colormatrix=9 / chromaloc=1 / chromaloc-top=2 / chromaloc-bottom=2 / display-window=0 / master-display=G(8500,39850)B(6550,2300)R(35400,14600)WP(15635,16450)L(10000000,1) / max-cll=0,0 / min-luma=0 / max-luma=1023 / log2-max-poc-lsb=8 / vui-timing-info / vui-hrd-info / slices=1 / no-opt-qp-pps / no-opt-ref-list-length-pps / no-multi-pass-opt-rps / scenecut-bias=0.05 / no-opt-cu-delta-qp / no-aq-motion / hdr / hdr-opt / no-dhdr10-opt / no-idr-recovery-sei / analysis-reuse-level=5 / scale-factor=0 / refine-intra=0 / refine-inter=0 / refine-mv=0 / no-limit-sao / ctu-info=0 / no-lowpass-dct / refine-mv-type=0 / copy-pic=1 / max-ausize-factor=1.0 / no-dynamic-refine / no-single-sei
Default : Да
Forced : Нет
Цветовой диапазон : Limited
Основные цвета : BT.2020
Характеристики трансфера : PQ
Коэффициенты матрицы : BT.2020 non-constant
MasteringDisplay_ColorPrimaries : BT.2020
MasteringDisplay_Luminance : min: 0.0001 cd/m2, max: 1000 cd/m2

Аудио #1
Идентификатор : 2
Формат : DTS XLL
Формат/Информация : Digital Theater Systems
Коммерческое название : DTS-HD Master Audio
Идентификатор кодека : A_DTS
Продолжительность : 1 ч. 34 м.
Вид битрейта : Переменный
Битрейт : 2258 Кбит/сек
Каналы : 6 каналов
Channel layout : C L R Ls Rs LFE
Частота : 48,0 КГц
Частота кадров : 93,750 кадра/сек (512 SPF)
Битовая глубина : 16 бит
Метод сжатия : Без потерь
Задержка видео : 5 с. 0 мс.
Размер потока : 1,49 Гбайт (5%)
Заголовок : MVO CP Digital
Язык : Russian
Default : Да
Forced : Нет

Аудио #2
Идентификатор : 3
Формат : DTS XLL
Формат/Информация : Digital Theater Systems
Коммерческое название : DTS-HD Master Audio
Идентификатор кодека : A_DTS
Продолжительность : 1 ч. 34 м.
Вид битрейта : Переменный
Битрейт : 2262 Кбит/сек
Каналы : 6 каналов
Channel layout : C L R Ls Rs LFE
Частота : 48,0 КГц
Частота кадров : 93,750 кадра/сек (512 SPF)
Битовая глубина : 16 бит
Метод сжатия : Без потерь
Задержка видео : 5 с. 0 мс.
Размер потока : 1,49 Гбайт (5%)
Заголовок : Юрий Живов
Язык : Russian
Default : Нет
Forced : Нет

Аудио #3
Идентификатор : 4
Формат : DTS XLL
Формат/Информация : Digital Theater Systems
Коммерческое название : DTS-HD Master Audio
Идентификатор кодека : A_DTS
Продолжительность : 1 ч. 34 м.
Вид битрейта : Переменный
Битрейт : 2259 Кбит/сек
Каналы : 6 каналов
Channel layout : C L R Ls Rs LFE
Частота : 48,0 КГц
Частота кадров : 93,750 кадра/сек (512 SPF)
Битовая глубина : 16 бит
Метод сжатия : Без потерь
Задержка видео : 5 с. 0 мс.
Размер потока : 1,49 Гбайт (5%)
Заголовок : Василий Горчаков
Язык : Russian
Default : Нет
Forced : Нет

Аудио #4
Идентификатор : 5
Формат : DTS XLL
Формат/Информация : Digital Theater Systems
Коммерческое название : DTS-HD Master Audio
Идентификатор кодека : A_DTS
Продолжительность : 1 ч. 34 м.
Вид битрейта : Переменный
Битрейт : 4279 Кбит/сек
Каналы : 6 каналов
Channel layout : C L R Ls Rs LFE
Частота : 48,0 КГц
Частота кадров : 93,750 кадра/сек (512 SPF)
Битовая глубина : 24 бит
Метод сжатия : Без потерь
Размер потока : 2,82 Гбайт (9%)
Заголовок : ORIGINAL
Язык : English
Default : Нет
Forced : Нет

Текст #1
Идентификатор : 6
Формат : UTF-8
Идентификатор кодека : S_TEXT/UTF8
Идентификатор кодека/Информация : UTF-8 Plain Text
Продолжительность : 1 ч. 29 м.
Битрейт : 42 бит/сек
ElementCount : 424
Размер потока : 27,9 Кбайт (0%)
Язык : Russian
Default : Нет
Forced : Нет

Текст #2
Идентификатор : 7
Формат : PGS
Режим смешивания : zlib
Идентификатор кодека : S_HDMV/PGS
Идентификатор кодека/Информация : Picture based subtitle format used on BDs/HD-DVDs
Продолжительность : 1 ч. 30 м.
Битрейт : 7709 бит/сек
ElementCount : 1268
Размер потока : 4,96 Мбайт (0%)
Заголовок : FULL
Язык : German
Default : Нет
Forced : Нет

Текст #3
Идентификатор : 8
Формат : PGS
Режим смешивания : zlib
Идентификатор кодека : S_HDMV/PGS
Идентификатор кодека/Информация : Picture based subtitle format used on BDs/HD-DVDs
Продолжительность : 1 ч. 30 м.
Битрейт : 8974 бит/сек
ElementCount : 1584
Размер потока : 5,79 Мбайт (0%)
Заголовок : Full-SDH
Язык : English
Default : Нет
Forced : Нет

Меню
00:00:00.000 : :00:00:00.000
00:06:19.208 : :00:06:19.208
00:11:47.667 : :00:11:47.667
00:21:01.208 : :00:21:01.208
00:29:33.875 : :00:29:33.875
00:41:16.833 : :00:41:16.833
00:46:18.833 : :00:46:18.833
00:53:49.333 : :00:53:49.333
01:02:28.167 : :01:02:28.167
01:08:34.125 : :01:08:34.125
01:21:56.042 : :01:21:56.042
01:30:56.250 : :01:30:56.250



Скачать Чужие среди нас через торрент https://b.radikal.ru/b29/1811/35/cf83f03d6289.jpg Скачать, смотреть онлайн Чужие среди нас бесплантно в хорошем качестве Описание: Однажды простой рабочий-строитель Нейда, которому не очень везёт в жизни, находит необычные солнечные очки. Надев их, он получает ... 10 10 2
Info! Золотая раздача, скачанное не засчитывается.
Торрент: Зарегистрирован [2018-11-02 15:12] · скачан: 14 раз
Статус: √ проверено
Размер: 30.95 GB
Как cкачать? Как скачать Чужие среди нас через торрент | UTorrent

% Раздел Тема Автор DL S | L
Фильмы [HD 720p, 1080p] (Хороший звук DUB, MVO) [ 6.7 GB ] Чужие среди нас / They Live | MVO + 2xDVO + 3xAVO + VO | 720p от KORSAR Cthulhu Скачать
2 | 0
Ultra HD (UHD: 2K, 4K, 8K) [ 58.24 GB ] Чужие среди нас / They Live | MVO + 2xAVO | 2160p sheker187 Скачать
1 | 0
Ultra HD (UHD: 2K, 4K, 8K) [ 37.27 GB ] Чужие среди нас / They Live | MVO + 2xAVO | 2160p sheker187 Скачать
1 | 0
Ultra HD (UHD: 2K, 4K, 8K) [ 45.16 GB ] Чужие среди нас / They Live | MVO + 2xAVO | 2160p sheker187 Скачать
1 | 0

28-11-2019 20:33  


Отключить вcю реклaмy на сайте, в т.ч. и в плеере онлайн просмотра!

    Дорогой пользователь! Огромная просьба, поблагодарите релизера, оцените раздачу и оставьте свои комментарий, если Вы скачали Чужие среди нас через торрент бесплатно!!
    Комментировать посты могут только пользователи прошедшие не сложную регистрацию
    Показать сообщения:    


    Чужие среди нас через торрент
    Скачать бесплатно Чужие среди нас
    Чужие среди нас скачать торрент
    Чужие среди нас смотреть онлайн
    Cкачать фильм Чужие среди нас бесплатно
    Чужие среди нас скачать торрент в хорошем качестве
    Чужие среди нас смотреть онлайн бесплатно в хорошем качестве
    Вы не можете начинать темы
    Вы не можете отвечать на сообщения
    Вы не можете редактировать свои сообщения
    Вы не можете удалять свои сообщения
    Вы не можете голосовать в опросах
    Вы не можете прикреплять файлы к сообщениям
    Вы можете скачивать файлы
    Чужие среди нас / They Live [1988, ужасы, фантастика, боевик, UHD BDRip 2160p] MVO + 2xAVO смотреть онлайн, скачать торрент picoco.icu