Достать ножи: Стеклянная луковица

MVO

Добыча

Дубляж

Уэнсдэй

1 сезон

Тор

Дубляж

13 клиническая

1 сезон

Жестокая ночь

MVO

Одни из нас

1 сезон

Deluxe

pack

Рекомендуем

30

Пиратка

ВАЖНО

ВАЖНО

Ghostwire

Пиратка

jed

RePack

nioh2

RePack

RDR2

RePack

NEED FOR SPEED™ PAYBACK

RePack

скачать торрент

Кинопоиск HD

Острые козырьки 6 сезон

6 сезон

FAR CRY 6

RePack

скачать торрент

Лицензия

скачать торрент

MVO

1

1 сезон

скачать торрент

1 сезон

скачать торрент

Лицензия

  

Супермен / Superman (Ричард Доннер) [1978, фантастика, боевик, драма, UHD BDRemux 2160p] Дубляж + 3xMVO

Супермен через торрент piratbit.org

Размер: 82.05 GB | Добавлен: 4 года 3 мес. назад | Торрент скачан:3 раза
Смотреть онлайн | Скачать | Поддержите нас   

04-11-2018 11:32 Супермен Скачать торрент  

Супермен / Superman

Год выпуска: 1978
Страна: США, Великобритания, Панама, Швейцария, Канада
Жанр: фантастика, боевик, драма, приключения
Продолжительность: 02:31:25
Перевод: Дублированный, профессиональный многоголосый
Субтитры: Русские, английские, немецкие
Режиссер: Ричард Доннер
В ролях:

Кристофер Рив (Superman / Clark Kent), Джин Хэкмен (Lex Luthor), Марго Киддер (Lois Lane), Марлон Брандо (Jor-El), Нед Битти (Otis), Валери Перрайн (Eve Teschmacher), Джекки Купер (Perry White), Марк МакКлюр (Jimmy Olsen), Джефф Ист (Young Clark Kent), Гленн Форд (Pa Kent), Тревор Ховард (1st Elder), Джек О’Хэллоран (Non)
Описание:
Цивилизация планеты Криптон стоит на грани гибели. Ученый Джор-Эл, чтобы спасти своему ребенку жизнь, отправляет его на Землю. Маленький мальчик вырастает и открывает в себе неземные возможности. Он - Супермен!
Рейтинг:

MPAA: PG - Рекомендуется присутствие родителей
Качество: UHD BDRemux 2160p
Формат: MKV
Видео: HEVC, HDR, 72.3 Мбит/с, 3840x2160, 23.976 кадр/с
Аудио №1: RUS DTS-HD MA / 5.1 / 48 kHz / 3710 kbps / 24 bit | MVO -(Пифагор)
Аудио №2: RUS AC3 / 2.0 / 48 kHz / 256 kbps / 16 bit | Дубляж -дубляж (Первый канал)
Аудио №3: RUS AC3 / 2.0 / 48 kHz / 192 kbps / 16 bit | MVO -(ОРТ)
Аудио №4: RUS AC3 / 5.1 / 48 kHz / 448 kbps / 16 bit | MVO - (РТР)
Аудио №5: UKR AC3 / 5.1 / 48 kHz / 448 kbps / 16 bit | MVO -(Украйнский)
Аудио №6: ENG TrueHD+Atmos / 7.1 / 48 kHz / 7134 kbps |- (Original)
Аудио №7: ENG AC3 / 5.1 / 48 kHz / 448 kbps / 16 bit |- (Original)
Аудио №8: GER AC3 / 2.0 / 48 kHz / 192 kbps / 16 bit |-Дубляж
Навигация по главам: есть
Complete name : E:\Movies\Superman.The.Movie.1978.2160p.BluRay.REMUX.HEVC.DTS-HD.MA.TrueHD.7.1.Atmos-ExKinoRay.mkv
Format : Matroska
Format version : Version 4 / Version 2
File size : 82.1 GiB
Duration : 2 h 23 min
Overall bit rate mode : Variable
Overall bit rate : 82.0 Mb/s
Movie name : Superman.The.Movie.1978.2160p || Release by SpaceHD13
Encoded date : UTC 2018-11-03 23:20:35
Writing application : mkvmerge v27.0.0 ('Metropolis') 64-bit
Writing library : libebml v1.3.6 + libmatroska v1.4.9
Cover : Yes
Attachments : cover.jpg

Video
ID : 1
Format : HEVC
Format/Info : High Efficiency Video Coding
Commercial name : HDR10
Format profile : Main 10@L5.1@High
Codec ID : V_MPEGH/ISO/HEVC
Duration : 2 h 23 min
Bit rate : 72.3 Mb/s
Width : 3 840 pixels
Height : 2 160 pixels
Display aspect ratio : 16:9
Frame rate mode : Constant
Frame rate : 23.976 (24000/1001) FPS
Color space : YUV
Chroma subsampling : 4:2:0 (Type 2)
Bit depth : 10 bits
Bits/(Pixel*Frame) : 0.364
Stream size : 72.4 GiB (88%)
Title : Superman.The.Movie.1978.2160p.BluRay.REMUX.HEVC.DTS-HD.MA.TrueHD.7.1.Atmos-ExKinoRay
Default : Yes
Forced : No
Color range : Limited
Color primaries : BT.2020
Transfer characteristics : PQ
Matrix coefficients : BT.2020 non-constant
Mastering display color primaries : Display P3
Mastering display luminance : min: 0.0050 cd/m2, max: 4000 cd/m2
Maximum Content Light Level : 3938 cd/m2
Maximum Frame-Average Light Level : 193 cd/m2

Audio #1
ID : 2
Format : DTS
Format/Info : Digital Theater Systems
Format profile : MA / Core
Codec ID : A_DTS
Duration : 2 h 23 min
Bit rate mode : Variable / Constant
Bit rate : 3 710 kb/s / 1 509 kb/s
Channel(s) : 6 channels
Channel positions : Front: L C R, Side: L R, LFE
Sampling rate : 48.0 kHz
Frame rate : 93.750 FPS (512 SPF)
Bit depth : 24 bits
Compression mode : Lossless / Lossy
Stream size : 3.71 GiB (5%)
Title : MVO (Пифагор)
Language : Russian
Default : Yes
Forced : No

Audio #2
ID : 3
Format : AC-3
Format/Info : Audio Coding 3
Codec ID : A_AC3
Duration : 2 h 23 min
Bit rate mode : Constant
Bit rate : 256 kb/s
Channel(s) : 2 channels
Channel positions : Front: L R
Sampling rate : 48.0 kHz
Frame rate : 31.250 FPS (1536 SPF)
Bit depth : 16 bits
Compression mode : Lossy
Stream size : 262 MiB (0%)
Title : дубляж (Первый канал)
Language : Russian
Service kind : Complete Main
Default : No
Forced : No

Audio #3
ID : 4
Format : AC-3
Format/Info : Audio Coding 3
Codec ID : A_AC3
Duration : 2 h 23 min
Bit rate mode : Constant
Bit rate : 192 kb/s
Channel(s) : 2 channels
Channel positions : Front: L R
Sampling rate : 48.0 kHz
Frame rate : 31.250 FPS (1536 SPF)
Bit depth : 16 bits
Compression mode : Lossy
Stream size : 197 MiB (0%)
Title : MVO (ОРТ)
Language : Russian
Service kind : Complete Main
Default : No
Forced : No

Audio #4
ID : 5
Format : AC-3
Format/Info : Audio Coding 3
Codec ID : A_AC3
Duration : 2 h 23 min
Bit rate mode : Constant
Bit rate : 448 kb/s
Channel(s) : 6 channels
Channel positions : Front: L C R, Side: L R, LFE
Sampling rate : 48.0 kHz
Frame rate : 31.250 FPS (1536 SPF)
Bit depth : 16 bits
Compression mode : Lossy
Stream size : 459 MiB (1%)
Title : MVO (РТР)
Language : Russian
Service kind : Complete Main
Default : No
Forced : No

Audio #5
ID : 6
Format : AC-3
Format/Info : Audio Coding 3
Codec ID : A_AC3
Duration : 2 h 23 min
Bit rate mode : Constant
Bit rate : 448 kb/s
Channel(s) : 6 channels
Channel positions : Front: L C R, Side: L R, LFE
Sampling rate : 48.0 kHz
Frame rate : 31.250 FPS (1536 SPF)
Bit depth : 16 bits
Compression mode : Lossy
Stream size : 459 MiB (1%)
Title : MVO
Language : Ukrainian
Service kind : Complete Main
Default : No
Forced : No

Audio #6
ID : 7
Format : TrueHD
Format profile : TrueHD+Atmos / TrueHD
Codec ID : A_TRUEHD
Duration : 2 h 23 min
Bit rate mode : Variable
Bit rate : 3 894 kb/s
Maximum bit rate : 7 134 kb/s
Channel(s) : Object Based / 8 channels
Channel positions : Object Based / Front: L C R, Side: L R, Back: L R, LFE
Sampling rate : / 48.0 kHz
Frame rate : 1 200.000 FPS (40 SPF)
Compression mode : Lossless
Stream size : 3.90 GiB (5%)
Title : TrueHD Atmos 7.1
Language : English
Default : No
Forced : No

Audio #7
ID : 8
Format : AC-3
Format/Info : Audio Coding 3
Codec ID : A_AC3
Duration : 2 h 23 min
Bit rate mode : Constant
Bit rate : 448 kb/s
Channel(s) : 6 channels
Channel positions : Front: L C R, Side: L R, LFE
Sampling rate : 48.0 kHz
Frame rate : 31.250 FPS (1536 SPF)
Bit depth : 16 bits
Compression mode : Lossy
Stream size : 459 MiB (1%)
Language : English
Service kind : Complete Main
Default : No
Forced : No

Audio #8
ID : 9
Format : AC-3
Format/Info : Audio Coding 3
Codec ID : A_AC3
Duration : 2 h 23 min
Bit rate mode : Constant
Bit rate : 192 kb/s
Channel(s) : 2 channels
Channel positions : Front: L R
Sampling rate : 48.0 kHz
Frame rate : 31.250 FPS (1536 SPF)
Bit depth : 16 bits
Compression mode : Lossy
Stream size : 197 MiB (0%)
Language : German
Service kind : Complete Main
Default : No
Forced : No

Text #1
ID : 10
Format : PGS
Muxing mode : zlib
Codec ID : S_HDMV/PGS
Codec ID/Info : Picture based subtitle format used on BDs/HD-DVDs
Duration : 2 h 14 min
Bit rate : 20.1 kb/s
Count of elements : 2522
Stream size : 19.4 MiB (0%)
Language : Russian
Default : Yes
Forced : No

Text #2
ID : 11
Format : PGS
Muxing mode : zlib
Codec ID : S_HDMV/PGS
Codec ID/Info : Picture based subtitle format used on BDs/HD-DVDs
Duration : 2 h 22 min
Bit rate : 24.8 kb/s
Count of elements : 2778
Stream size : 25.4 MiB (0%)
Title : full-SDH
Language : German
Default : No
Forced : No

Text #3
ID : 12
Format : PGS
Muxing mode : zlib
Codec ID : S_HDMV/PGS
Codec ID/Info : Picture based subtitle format used on BDs/HD-DVDs
Duration : 2 h 22 min
Bit rate : 25.6 kb/s
Count of elements : 2790
Stream size : 26.0 MiB (0%)
Title : full-SDH
Language : English
Default : No
Forced : No

Menu
00:00:00.000 : :Chapter 01
00:05:18.985 : :Chapter 02
00:09:38.202 : :Chapter 03
00:11:17.968 : :Chapter 04
00:13:43.989 : :Chapter 05
00:17:43.062 : :Chapter 06
00:21:41.800 : :Chapter 07
00:23:23.026 : :Chapter 08
00:26:18.410 : :Chapter 09
00:29:46.576 : :Chapter 10
00:33:34.429 : :Chapter 11
00:39:06.052 : :Chapter 12
00:42:42.226 : :Chapter 13
00:48:00.794 : :Chapter 14
00:52:10.335 : :Chapter 15
00:55:23.778 : :Chapter 16
00:59:55.758 : :Chapter 17
01:02:42.467 : :Chapter 18
01:04:48.759 : :Chapter 19
01:07:57.406 : :Chapter 20
01:10:41.070 : :Chapter 21
01:15:30.484 : :Chapter 22
01:17:10.917 : :Chapter 23
01:20:36.581 : :Chapter 24
01:25:32.502 : :Chapter 25
01:28:35.476 : :Chapter 26
01:32:03.893 : :Chapter 27
01:34:15.149 : :Chapter 28
01:37:53.909 : :Chapter 29
01:41:19.198 : :Chapter 30
01:42:41.405 : :Chapter 31
01:46:37.933 : :Chapter 32
01:51:33.978 : :Chapter 33
01:55:05.815 : :Chapter 34
01:57:49.937 : :Chapter 35
02:01:46.424 : :Chapter 36
02:04:30.004 : :Chapter 37
02:07:18.130 : :Chapter 38
02:10:37.037 : :Chapter 39
02:14:19.384 : :Chapter 40
02:15:40.132 : :Chapter 41



Скачать Супермен через торрент https://c.radikal.ru/c21/1811/fd/95a63426ed74.jpg Скачать, смотреть онлайн Супермен бесплантно в хорошем качестве Описание: Цивилизация планеты Криптон стоит на грани гибели. Ученый Джор-Эл, чтобы спасти своему ребенку жизнь, отправляет его на Землю. ... 5 10 1
Info! Золотая раздача, скачанное не засчитывается.
Торрент: Зарегистрирован [2018-11-04 11:32] · скачан: 3 раз
Статус: √ проверено
Размер: 82.05 GB
Как cкачать? Как скачать Супермен через торрент | UTorrent

28-11-2019 20:33  


Отключить вcю реклaмy на сайте, в т.ч. и в плеере онлайн просмотра!

    Дорогой пользователь! Огромная просьба, поблагодарите релизера, оцените раздачу и оставьте свои комментарий, если Вы скачали Супермен через торрент бесплатно!!
    Комментировать посты могут только пользователи прошедшие не сложную регистрацию
    Показать сообщения:    


    Супермен через торрент
    Скачать бесплатно Супермен
    Супермен скачать торрент
    Супермен смотреть онлайн
    Cкачать фильм Супермен бесплатно
    Супермен скачать торрент в хорошем качестве
    Супермен смотреть онлайн бесплатно в хорошем качестве
    Вы не можете начинать темы
    Вы не можете отвечать на сообщения
    Вы не можете редактировать свои сообщения
    Вы не можете удалять свои сообщения
    Вы не можете голосовать в опросах
    Вы не можете прикреплять файлы к сообщениям
    Вы можете скачивать файлы
    Супермен / Superman [1978, фантастика, боевик, драма, UHD BDRemux 2160p] Дубляж + 3xMVO смотреть онлайн, скачать торрент picoco.icu