Достать ножи: Стеклянная луковица

MVO

Добыча

Дубляж

Уэнсдэй

1 сезон

Тор

Дубляж

13 клиническая

1 сезон

Жестокая ночь

MVO

Одни из нас

1 сезон

Deluxe

pack

Рекомендуем

30

Пиратка

ВАЖНО

ВАЖНО

Ghostwire

Пиратка

jed

RePack

nioh2

RePack

RDR2

RePack

NEED FOR SPEED™ PAYBACK

RePack

скачать торрент

Кинопоиск HD

Острые козырьки 6 сезон

6 сезон

FAR CRY 6

RePack

скачать торрент

Лицензия

скачать торрент

MVO

1

1 сезон

скачать торрент

1 сезон

скачать торрент

Лицензия

  

Тор: Рагнарёк / Thor: Ragnarok (Тайка Вайтити) [2017, фантастика, фэнтези, боевик, комедия, приключения, UHD BDRip 2160p] Дубляж + 2xVO

Тор: Рагнарёк через торрент piratbit.org

Размер: 16.74 GB | Добавлен: 4 года 2 мес. назад | Торрент скачан:99 раз
Смотреть онлайн | Скачать | Поддержите нас   

05-11-2018 05:11 Тор: Рагнарёк Скачать торрент  

Тор: Рагнарёк / Thor: Ragnarok«No Hammer. No Problem»
Год выпуска: 2017
Страна: США
Жанр: фантастика, фэнтези, боевик, комедия, приключения
Продолжительность: 02:10:30
Перевод: Дублированный, профессиональный одноголосый, любительский одноголосый
Субтитры: Русские, английские
Режиссер: Тайка Вайтити

В ролях:

Крис Хемсворт (Thor), Том Хиддлстон (Loki), Кейт Бланшетт (Hela), Идрис Эльба (Heimdall), Джефф Голдблюм (Grandmaster), Тесса Томпсон (Valkyrie), Карл Урбан (Skurge), Марк Руффало (Bruce Banner / Hulk), Энтони Хопкинс (Odin), Бенедикт Камбербэтч (Doctor Strange), Тайка Вайтити (Korg, озвучка), Рэйчел Хаус (Topaz)
Описание:
Вернувшись в Асгард в поисках таинственного врага, ведущего охоту на Камни Бесконечности, Тор обнаруживает, что действия его брата Локи, захватившего трон Асгарда, привели к приближению наиболее страшного события - Рагнарёка. По легенде это ознаменует последнюю битву Асгарда, последствием которой станет его полное уничтожение. В попытке предотвратить это событие Тору предстоит прибегнуть к помощи своего товарища из Мстителей - Халка. Вместе им предстоит столкнуться лицом к лицу со злейшим врагом всех девяти миров - огненным демоном Суртуром, целью которого является исполнение пророчества о Рагнарёке и уничтожение девяти миров.
Рейтинг:

MPAA: PG-13 - Детям до 13 лет просмотр не желателен
Качество: UHD BDRip 2160p
Формат: MKV
Видео: HEVC, HDR, 12800 Кбит/с, 3840x1608, 23.976 Кадр/с
Аудио №1: 48.0 kHz, AC3 Dolby Digital, 3/2 (L,R) ch, 640 kbps | RUS / Дубляж / Лицензия
Аудио №2: 48.0 kHz, AC3 Dolby Digital, 2/0 (L,R) ch, 192 kbps | RUS / Р. Асланов
Аудио №3: 48.0 kHz, AC3 Dolby Digital, 3/2 (L,C,R,l,r) + LFE ch, 384 kbps | RUS / Solod
Аудио №4: 48.0 kHz, TrueHD, 7/1 (L,C,R,l,r) + LFE ch, 4051 kbps | ENG
Аудио №5: 48.0 kHz, AC3 Dolby Digital, 2/0 (L,R) ch, 192 kbps | ENG_Commentary by Director Taika Waititi
Навигация по главам: Есть

Общее
Уникальный идентификатор : 210056093535545146545569789177870254005 (0x9E0755017F8C4FA2871F742333F57FB5)
Полное имя : H:\Thor.Ragnarok.2017.2160p.UHD.BluRay.X265-Master5.mkv
Формат : Matroska
Версия формата : Version 4 / Version 2
Размер файла : 16,7 Гбайт
Продолжительность : 2 ч. 10 м.
Режим общего битрейта : Переменный
Общий поток : 18,3 Мбит/сек
Название фильма : Thor.Ragnarok.2017.2160p.UHD.BluRay.X265-Master5
Дата кодирования : UTC 2018-03-01 17:06:04
Программа кодирования : mkvmerge v8.1.0 ('Psychedelic Postcard') 32bit
Библиотека кодирования : libebml v1.3.1 + libmatroska v1.4.2

Видео
Идентификатор : 1
Формат : HEVC
Формат/Информация : High Efficiency Video Coding
Профиль формата : Main 10@L5.1@High
Идентификатор кодека : V_MPEGH/ISO/HEVC
Продолжительность : 2 ч. 10 м.
Битрейт : 12,8 Мбит/сек
Ширина : 3840 пикселей
Высота : 1608 пикселей
Соотношение сторон : 2,40:1
Режим частоты кадров : Постоянный
Частота кадров : 23,976 (24000/1001) кадра/сек
Цветовое пространство : YUV
Субдискретизация насыщенности : 4:2:0 (Type 2)
Битовая глубина : 10 бит
Бит/(Пиксели*Кадры) : 0.087
Размер потока : 11,7 Гбайт (70%)
Заголовок : Thor.Ragnarok.2017.2160p.UHD.BluRay.X265-Master5
Библиотека кодирования : x265 2.6+37-1949157705ce:[Windows][GCC 6.3.0][64 bit] 10bit
Настройки программы : cpuid=1173503 / frame-threads=4 / numa-pools=16 / wpp / no-pmode / no-pme / no-psnr / no-ssim / log-level=2 / input-csp=1 / input-res=3840x1608 / interlace=0 / total-frames=187749 / level-idc=51 / high-tier=1 / uhd-bd=0 / ref=4 / no-allow-non-conformance / repeat-headers / annexb / aud / hrd / info / hash=0 / no-temporal-layers / no-open-gop / min-keyint=24 / keyint=240 / gop-lookahead=0 / bframes=4 / b-adapt=2 / b-pyramid / bframe-bias=0 / rc-lookahead=25 / lookahead-slices=4 / scenecut=40 / radl=0 / no-intra-refresh / ctu=64 / min-cu-size=8 / rect / no-amp / max-tu-size=32 / tu-inter-depth=1 / tu-intra-depth=1 / limit-tu=0 / rdoq-level=2 / dynamic-rd=0.00 / no-ssim-rd / signhide / no-tskip / nr-intra=0 / nr-inter=0 / no-constrained-intra / no-strong-intra-smoothing / max-merge=3 / limit-refs=3 / limit-modes / me=3 / subme=3 / merange=57 / temporal-mvp / weightp / no-weightb / no-analyze-src-pics / deblock=-3:-3 / no-sao / no-sao-non-deblock / rd=4 / no-early-skip / rskip / no-fast-intra / no-tskip-fast / no-cu-lossless / no-b-intra / no-splitrd-skip / rdpenalty=0 / psy-rd=2.00 / psy-rdoq=1.00 / no-rd-refine / no-lossless / cbqpoffs=0 / crqpoffs=0 / rc=crf / crf=17.0 / qcomp=0.60 / qpstep=4 / stats-write=0 / stats-read=0 / vbv-maxrate=160000 / vbv-bufsize=160000 / vbv-init=0.9 / crf-max=0.0 / crf-min=0.0 / ipratio=1.40 / pbratio=1.30 / aq-mode=1 / aq-strength=1.00 / cutree / zone-count=0 / no-strict-cbr / qg-size=32 / no-rc-grain / qpmax=69 / qpmin=0 / no-const-vbv / sar=1 / overscan=0 / videoformat=5 / range=0 / colorprim=9 / transfer=16 / colormatrix=9 / chromaloc=1 / chromaloc-top=2 / chromaloc-bottom=2 / display-window=0 / master-display=G(13250,34500)B(7500,3000)R(34000,16000)WP(15635,16450)L(10000000,0) / max-cll=0,0 / min-luma=0 / max-luma=1023 / log2-max-poc-lsb=8 / vui-timing-info / vui-hrd-info / slices=1 / opt-qp-pps / opt-ref-list-length-pps / no-multi-pass-opt-rps / scenecut-bias=0.05 / no-opt-cu-delta-qp / no-aq-motion / hdr / hdr-opt / no-dhdr10-opt / analysis-reuse-level=5 / scale-factor=0 / refine-intra=0 / refine-inter=0 / refine-mv=0 / no-limit-sao / ctu-info=0 / no-lowpass-dct / refine-mv-type=0 / copy-pic=1
Default : Да
Forced : Нет
Цветовой диапазон : Limited
Основные цвета : BT.2020
Характеристики трансфера : SMPTE ST 2084
Коэффициенты матрицы : BT.2020 non-constant
MasteringDisplay_ColorPrimaries : R: x=0.680000 y=0.320000, G: x=0.265000 y=0.690000, B: x=0.150000 y=0.060000, White point: x=0.312700 y=0.329000
MasteringDisplay_Luminance : min: 0.0000 cd/m2, max: 1000.0000 cd/m2

Аудио #1
Идентификатор : 2
Формат : AC-3
Формат/Информация : Audio Coding 3
Расширение режима : CM (complete main)
Параметр Endianness формата : Big
Идентификатор кодека : A_AC3
Продолжительность : 2 ч. 10 м.
Вид битрейта : Постоянный
Битрейт : 640 Кбит/сек
Каналы : 6 каналов
Расположение каналов : Front: L C R, Side: L R, LFE
Частота : 48,0 КГц
Частота кадров : 31,250 кадров/сек (1536 spf)
Метод сжатия : С потерями
Размер потока : 597 Мбайт (3%)
Заголовок : Лицензия
Язык : Russian
Default : Да
Forced : Нет

Аудио #2
Идентификатор : 3
Формат : AC-3
Формат/Информация : Audio Coding 3
Расширение режима : CM (complete main)
Параметр Endianness формата : Big
Идентификатор кодека : A_AC3
Продолжительность : 2 ч. 10 м.
Вид битрейта : Постоянный
Битрейт : 192 Кбит/сек
Каналы : 2 канала
Расположение каналов : Front: L R
Частота : 48,0 КГц
Частота кадров : 31,250 кадров/сек (1536 spf)
Метод сжатия : С потерями
Размер потока : 180 Мбайт (1%)
Заголовок : Р. Асланов
Язык : Russian
Default : Нет
Forced : Нет

Аудио #3
Идентификатор : 4
Формат : AC-3
Формат/Информация : Audio Coding 3
Расширение режима : CM (complete main)
Параметр Endianness формата : Big
Идентификатор кодека : A_AC3
Продолжительность : 2 ч. 10 м.
Вид битрейта : Постоянный
Битрейт : 384 Кбит/сек
Каналы : 6 каналов
Расположение каналов : Front: L C R, Side: L R, LFE
Частота : 48,0 КГц
Частота кадров : 31,250 кадров/сек (1536 spf)
Метод сжатия : С потерями
Размер потока : 359 Мбайт (2%)
Заголовок : Solod
Язык : Russian
Default : Нет
Forced : Нет

Аудио #4
Идентификатор : 5
Формат : Atmos / TrueHD
Идентификатор кодека : A_TRUEHD
Продолжительность : 2 ч. 10 м.
Вид битрейта : Переменный
Битрейт : 4051 Кбит/сек
Максимальный битрейт : 5889 Кбит/сек
Каналы : Object Based / 8 каналов
Расположение каналов : Object Based / Front: L C R, Side: L R, Back: L R, LFE
Частота : / 48,0 КГц
Частота кадров : 1200,000 кадров/сек (40 spf)
Метод сжатия : Без потерь
Задержка видео : 32 мс.
Размер потока : 3,69 Гбайт (22%)
Заголовок : Atmos
Язык : English
Default : Нет
Forced : Нет

Аудио #5
Идентификатор : 6
Формат : AC-3
Формат/Информация : Audio Coding 3
Расширение режима : CM (complete main)
Параметр Endianness формата : Big
Идентификатор кодека : A_AC3
Продолжительность : 2 ч. 10 м.
Вид битрейта : Постоянный
Битрейт : 192 Кбит/сек
Каналы : 2 канала
Расположение каналов : Front: L R
Частота : 48,0 КГц
Частота кадров : 31,250 кадров/сек (1536 spf)
Метод сжатия : С потерями
Размер потока : 179 Мбайт (1%)
Заголовок : Commentary by Director Taika Waititi
Язык : English
Default : Нет
Forced : Нет

Текст #1
Идентификатор : 7
Формат : UTF-8
Идентификатор кодека : S_TEXT/UTF8
Идентификатор кодека/Информация : UTF-8 Plain Text
Продолжительность : 1 ч. 56 м.
Битрейт : 0 бит/сек
Count of elements : 4
Размер потока : 216 байт (0%)
Заголовок : форс
Язык : Russian
Default : Да
Forced : Нет

Текст #2
Идентификатор : 8
Формат : UTF-8
Идентификатор кодека : S_TEXT/UTF8
Идентификатор кодека/Информация : UTF-8 Plain Text
Продолжительность : 2 ч. 9 м.
Битрейт : 84 бит/сек
Count of elements : 1560
Размер потока : 80,0 Кбайт (0%)
Заголовок : 1
Язык : Russian
Default : Нет
Forced : Нет

Текст #3
Идентификатор : 9
Формат : UTF-8
Идентификатор кодека : S_TEXT/UTF8
Идентификатор кодека/Информация : UTF-8 Plain Text
Продолжительность : 2 ч. 9 м.
Битрейт : 76 бит/сек
Count of elements : 1569
Размер потока : 72,3 Кбайт (0%)
Заголовок : 2
Язык : Russian
Default : Нет
Forced : Нет

Текст #4
Идентификатор : 10
Формат : UTF-8
Идентификатор кодека : S_TEXT/UTF8
Идентификатор кодека/Информация : UTF-8 Plain Text
Продолжительность : 2 ч. 9 м.
Битрейт : 49 бит/сек
Count of elements : 1568
Размер потока : 47,1 Кбайт (0%)
Заголовок : полные
Язык : English
Default : Нет
Forced : Нет

Меню
00:00:00.000 : en:Chapter 1
00:06:20.671 : en:Chapter 2
00:14:11.642 : en:Chapter 3
00:22:12.873 : en:Chapter 4
00:26:43.059 : en:Chapter 5
00:31:29.721 : en:Chapter 6
00:35:03.935 : en:Chapter 7
00:42:49.733 : en:Chapter 8
00:48:31.533 : en:Chapter 9
00:59:38.783 : en:Chapter 10
01:07:57.907 : en:Chapter 11
01:17:30.604 : en:Chapter 12
01:27:25.323 : en:Chapter 13
01:36:08.721 : en:Chapter 14
01:42:35.732 : en:Chapter 15
01:49:19.886 : en:Chapter 16
01:54:57.599 : en:Chapter 17
02:00:37.521 : en:Chapter 18



Скачать Тор: Рагнарёк через торрент https://d.radikal.ru/d21/1811/40/9a9306e2396c.png Скачать, смотреть онлайн Тор: Рагнарёк бесплантно в хорошем качестве Описание: Вернувшись в Асгард в поисках таинственного врага, ведущего охоту на Камни Бесконечности, Тор обнаруживает, что действия его ... 5.5 10 2
Торрент: Зарегистрирован [2018-11-05 05:11] · скачан: 99 раз
Статус: √ проверено
Размер: 16.74 GB
Как cкачать? Как скачать Тор: Рагнарёк через торрент | UTorrent

28-11-2019 20:33  


Отключить вcю реклaмy на сайте, в т.ч. и в плеере онлайн просмотра!

    Дорогой пользователь! Огромная просьба, поблагодарите релизера, оцените раздачу и оставьте свои комментарий, если Вы скачали Тор: Рагнарёк через торрент бесплатно!!
    Комментировать посты могут только пользователи прошедшие не сложную регистрацию
    Показать сообщения:    


    Тор: Рагнарёк через торрент
    Скачать бесплатно Тор: Рагнарёк
    Тор: Рагнарёк скачать торрент
    Тор: Рагнарёк смотреть онлайн
    Cкачать фильм Тор: Рагнарёк бесплатно
    Тор: Рагнарёк скачать торрент в хорошем качестве
    Тор: Рагнарёк смотреть онлайн бесплатно в хорошем качестве
    Вы не можете начинать темы
    Вы не можете отвечать на сообщения
    Вы не можете редактировать свои сообщения
    Вы не можете удалять свои сообщения
    Вы не можете голосовать в опросах
    Вы не можете прикреплять файлы к сообщениям
    Вы можете скачивать файлы
    Тор: Рагнарёк / Thor: Ragnarok [2017, фантастика, фэнтези, боевик, комедия, приключения, UHD BDRip 2160p] Дубляж + 2xVO смотреть онлайн, скачать торрент picoco.icu