1 сезон

3 сезон

iTunes

1

iTunes

DUB Netflix

iTunes

13

1 сезон

RePack

30

Deluxe

pack

Легкие деньги

ВАЖНО

ИГРА 18+

pack

RePack

MK11

RePack

jed

RePack

fifa19

RePack

RDR2

RePack

NEED FOR SPEED™ PAYBACK

4 сезон

9 сезон

Бесстыжие 9 сезон

Все сериалы

все сериалы на PB.wtf

RePack

FAR CRY 5

Anonymous, доброй ночи, мы не успеваем до 1 числа собрать деньги на оплату серверов, помогите нам пожалуйста в это трудное время. В качестве благодарности мы отключим Вам всю рекламу на сайте (укажите свой ник в строку Ваше имя)!

×
  
Magnet ссылка

Ольга / Сезон: 3 / Серии: 1-16 из 16 + фильм о фильме (Алексей Нужный, Игорь Волошин) [2018, комедия, HDTV 1080i] piratbit.org

Ольга через торрент piratbit.org

Размер: 20.04 GB | Добавлен: 2 года 6 мес. назад | Торрент скачан:418 раз
Скачать  

06-11-2018 18:50 Ольга Скачать торрент  

Ольга
Год выпуска: 2018
Страна: Россия
Жанр: комедия
Продолжительность: ~ 00:26:00
Перевод: Не требуется
Субтитры: отсутствуют

Режиссер: Алексей Нужный, Игорь Волошин

rating

В ролях:

Яна Троянова (Ольга Терентьева), Василий Кортуков (Юрий Геннадьевич Терентьев, отец Ольги), Алина Алексеева (Лена, младшая сестра Ольги), Ксения Суркова (Аня, дочь Ольги), Сергей Романович (Андрей, парень Ани), Максим Костромыкин (Григорий Юсупов), Гоша Куценко (Володя), Фархад Гусейнов (водитель), Борис Дергачев, Александр Шам (Марат), Александр Никольский, Александр Силаев (Лютый)

Описание:

Третий сезон «Ольги» отличает повышенная событийность: в каждой серии сюжет может менять ход три-четыре раза, так что не совсем понятно, в какой тупик на этот раз придут герои. И каким образом из него вообще будут выбераться. Юмор имеет терапевтический эффект, ведь относиться всерьез к такому валу проблем попросту вредно для организма. В новых сериях Ольга и компания, как в сказке про репку, продолжат тащить друг друга из болота обыденности и безнадеги, в которое иногда заводит героев необычайно смешная и по-своему счастливая жизнь.

Качество: HDTV 1080i
Формат: TS

Видео: 1920х1080 (16:9), 25 fps, AVC MPEG-4 (x264), High@L4.0 ~ 7100 kbps avg, 0.121 bit/pixel
Аудио: 48 kHz, MPEG Layer 2, 2 ch, ~ 192 kbps avg
скриншот  скриншот  скриншот  скриншот  

Общее
Идентификатор : 1 (0x1)
Полное имя : D:\Olga.s03.2018.HDTV.(1080i).Nikolspup\Olga.s03.(01.seriya).2018.HDTV.(1080i).Nikolspup.ts
Формат : MPEG-TS
Размер файла : 1,21 Гбайт
Продолжительность : 22 м. 54 с.
Режим общего битрейта : Переменный
Общий поток : 7588 Кбит/сек

Видео
Идентификатор : 256 (0x100)
Идентификатор меню : 1 (0x1)
Формат : AVC
Формат/Информация : Advanced Video Codec
Профиль формата : High@L4.1
Параметр CABAC формата : Да
Параметр RefFrames формата : 3 кадра
Идентификатор кодека : 27
Продолжительность : 22 м. 54 с.
Вид битрейта : Постоянный
Битрейт : 7020 Кбит/сек
Номинальный битрейт : 7875 Кбит/сек
Ширина : 1920 пикселей
Высота : 1080 пикселей
Соотношение сторон : 16:9
Частота кадров : 25,000 кадров/сек
Стандарт вещания : PAL
Цветовое пространство : YUV
Субдискретизация насыщенности : 4:2:0
Битовая глубина : 8 бит
Тип развёртки : Прогрессивная
Бит/(Пиксели*Кадры) : 0.135
Размер потока : 1,12 Гбайт (93%)
Цветовой диапазон : Limited
Основные цвета : BT.709
Характеристики трансфера : BT.709
Коэффициенты матрицы : BT.709

Аудио
Идентификатор : 307 (0x133)
Идентификатор меню : 1 (0x1)
Формат : MPEG Audio
Версия формата : Version 1
Профиль формата : Layer 2
Идентификатор кодека : 3
Продолжительность : 22 м. 54 с.
Вид битрейта : Постоянный
Битрейт : 192 Кбит/сек
Каналы : 2 канала
Частота : 48,0 КГц
Метод сжатия : С потерями
Размер потока : 31,5 Мбайт (3%)
Язык : Russian

Внимание! Раздача ведётся путём добавления новых серий; при каждом добавлении создаётся новый торрент. Чтобы начать докачку новой серии, пользователям необходимо сделать следующее:
(1) остановить скачивание,
(2) удалить старый торрент у себя из клиента (старые серии удалять не надо),
(3) скачать новый торрент и запустить его у себя в клиенте вместо старого, при этом указать клиенту путь в старую папку куда и должно происходить скачивание новых серий.
Ваш клиент при этом должен произвести хеширование (проверку) старой папки (если не производит сам - помогите ему сделать это), и будет докачивать только те серии которых у вас ещё нет. Старые серии при этом не удаляются, а продолжают раздаваться!
Eсли вы уже удалили старые серии, то предотвратить повторную закачку старых серий можно, отжав галочку в соответствующих местах при запуске нового торрента. По возможности, желательно не удалять старые серии как можно дольше чтобы релизёр не столько продолжал раздавать старые серии, а смог сконцентрироваться на новых.
piratbit.org



Скачать Ольга через торрент https://a.radikal.ru/a41/1811/01/c03b07ce2089.jpg Скачать фильм Ольга через торрент бесплантно в хорошем качестве Описание: Третий сезон «Ольги» отличает повышенная событийность: в каждой серии сюжет может менять ход три-четыре раза, так что не совсем ... 9.9 10 64
Торрент: Зарегистрирован [2018-11-29 20:37] · скачан: 418 раз
Статус: √ проверено
Размер: 20.04 GB
Как cкачать? Как скачать Ольга через торрент | UTorrent

% Раздел Тема Автор DL S | L
TNT serials [ 12.93 GB ] Ольга / Сезон: 3 / Серии: 1-16 из 16 + фильм о фильме [2018 WEB-DL 1080p] bober100 Скачать
1 | 0
TNT serials [ 4.64 GB ] Ольга / Сезон: 3 / Серии: 1-16 из 16 + фильм о фильме [2018 WEB-DLRip] bober100 Скачать
1 | 0
TNT serials [ 4.29 GB ] Ольга / Сезон: 3 / Серии: 1-16 из 16 + Фильм о фильме [2018 HDTVRip] bober100 Скачать
1 | 0


Последний раз редактировалось: bober100 (2018-11-29 20:37), всего редактировалось 8 раз(а)

28-11-2019 20:33  

Отключить всю рекламу на сайте

27-11-2018 19:16 Ольга Скачать торрент  

Скриншоты не соответствуют сериям, по телеку уже прошла серия а тут еще нетpiratbit.org



    Дорогой пользователь! Огромная просьба, поблагодарите релизера, оцените раздачу и оставьте свои комментарий, если Вы скачали Ольга через торрент бесплатно! Внесите свою лепту в развитие PiratBit!
    Комментировать посты могут только пользователи прошедшие не сложную регистрацию
    Показать сообщения:    

    Ольга через торрент
    Скачать бесплатно Ольга
    Ольга скачать торрент
    Ольга смотреть онлайн
    Cкачать фильм Ольга бесплатно
    Ольга скачать торрент в хорошем качестве
    Ольга смотреть онлайн бесплатно в хорошем качестве


    Вы не можете начинать темы
    Вы не можете отвечать на сообщения
    Вы не можете редактировать свои сообщения
    Вы не можете удалять свои сообщения
    Вы не можете голосовать в опросах
    Вы не можете прикреплять файлы к сообщениям
    Вы можете скачивать файлы