Достать ножи: Стеклянная луковица

MVO

Добыча

Дубляж

Уэнсдэй

1 сезон

Тор

Дубляж

13 клиническая

1 сезон

Жестокая ночь

MVO

Одни из нас

1 сезон

Deluxe

pack

Рекомендуем

30

Пиратка

ВАЖНО

ВАЖНО

Ghostwire

Пиратка

jed

RePack

nioh2

RePack

RDR2

RePack

NEED FOR SPEED™ PAYBACK

RePack

скачать торрент

Кинопоиск HD

Острые козырьки 6 сезон

6 сезон

FAR CRY 6

RePack

скачать торрент

Лицензия

скачать торрент

MVO

1

1 сезон

скачать торрент

1 сезон

скачать торрент

Лицензия

  

Супермен / Superman (Ричард Доннер) [1978, фантастика, боевик, драма, UHD BDRip 2160p] Дубляж + MVO

Супермен через торрент piratbit.org

Размер: 31.27 GB | Добавлен: 4 года 3 мес. назад | Торрент скачан:0 раз
Смотреть онлайн | Скачать | Поддержите нас   

07-11-2018 13:30 Супермен Скачать торрент  

Супермен / Superman

Год выпуска: 1978
Страна: США, Великобритания, Панама, Швейцария, Канада
Жанр: фантастика, боевик, драма, приключения
Продолжительность: 02:23:17
Перевод: Дублированный, профессиональный многоголосый
Субтитры: Русские, английские
Режиссер: Ричард Доннер
В ролях:

Кристофер Рив (Superman / Clark Kent), Джин Хэкмен (Lex Luthor), Марго Киддер (Lois Lane), Марлон Брандо (Jor-El), Нед Битти (Otis), Валери Перрайн (Eve Teschmacher), Джекки Купер (Perry White), Марк МакКлюр (Jimmy Olsen), Джефф Ист (Young Clark Kent), Гленн Форд (Pa Kent), Тревор Ховард (1st Elder), Джек О’Хэллоран (Non)
Описание:
Цивилизация планеты Криптон стоит на грани гибели. Ученый Джор-Эл, чтобы спасти своему ребенку жизнь, отправляет его на Землю. Маленький мальчик вырастает и открывает в себе неземные возможности. Он - Супермен!
Рейтинг:

MPAA: PG - Рекомендуется присутствие родителей
Качество: UHD BDRip 2160p
Формат: MKV
Видео: HEVC, HDR, 26400 Кбит/c, 3840x1600, 23.976 Кадр/с, 10 bit
Аудио №1: RUS DTS-HD MA / 5.1 / 48 kHz / 3710 kbps / 24 bit |MVO -(Пифагор)_включён по умолчанию
Аудио №2: RUS AC3 / 2.0 / 48 kHz / 256 kbps / 16 bit | Дубляж -дубляж (Первый канал)
Аудио №3: UKR AC3 / 5.1 / 48 kHz / 448 kbps / 16 bit | MVO -(Украинский)
Аудио №4: ENG AC3 / 5.1 / 48 kHz / 448 kbps / 16 bit |- (Original)
Навигация по главам: есть
Общее
Уникальный идентификатор : 224673169106937474894542320319564442074 (0xA9067A78F81A83A5A39E3B1E6E9569DA)
Полное имя : F:\Superman.The.Movie.1978.2160p.BDRip.10bit.HEVC.HDR.4K.x265.Master5.mkv
Формат : Matroska
Версия формата : Version 4
Размер файла : 31,3 Гбайт
Продолжительность : 2 ч. 23 м.
Режим общего битрейта : Переменный
Общий поток : 31,2 Мбит/сек
Название фильма : Superman.The.Movie.1978.2160p.BDRip.10bit.HEVC.HDR.4K.x265.Master5
Дата кодирования : UTC 2018-11-05 11:01:16
Программа кодирования : mkvmerge v7.9.0 ('Birds') 64bit
Библиотека кодирования : libebml v1.3.1 + libmatroska v1.4.2
Обложка : Yes
Attachments : cover.jpg

Видео
Идентификатор : 1
Формат : HEVC
Формат/Информация : High Efficiency Video Coding
Коммерческое название : HDR10
Профиль формата : Main 10@L5.1@High
Идентификатор кодека : V_MPEGH/ISO/HEVC
Продолжительность : 2 ч. 23 м.
Битрейт : 26,4 Мбит/сек
Ширина : 3840 пикселей
Высота : 1600 пикселей
Соотношение сторон : 2,40:1
Режим частоты кадров : Постоянный
Частота кадров : 23,976 (24000/1001) кадра/сек
Цветовое пространство : YUV
Субдискретизация насыщенности : 4:2:0 (Type 2)
Битовая глубина : 10 бит
Бит/(Пиксели*Кадры) : 0.179
Размер потока : 26,4 Гбайт (84%)
Заголовок : Superman.The.Movie.1978.2160p.BDRip.10bit.HEVC.HDR.4K.x265.Master5
Библиотека кодирования : x265 2.8+58-d17bc7714ed2:[Windows][GCC 8.2.0][64 bit] 10bit
Настройки программы : cpuid=1111039 / frame-threads=5 / numa-pools=36 / wpp / no-pmode / no-pme / no-psnr / no-ssim / log-level=2 / input-csp=1 / input-res=3840x1600 / interlace=0 / total-frames=206008 / level-idc=51 / high-tier=1 / uhd-bd=0 / ref=4 / no-allow-non-conformance / repeat-headers / annexb / aud / hrd / info / hash=0 / no-temporal-layers / no-open-gop / min-keyint=24 / keyint=240 / gop-lookahead=0 / bframes=4 / b-adapt=2 / b-pyramid / bframe-bias=0 / rc-lookahead=25 / lookahead-slices=4 / scenecut=40 / radl=0 / no-intra-refresh / ctu=64 / min-cu-size=8 / rect / no-amp / max-tu-size=32 / tu-inter-depth=1 / tu-intra-depth=1 / limit-tu=0 / rdoq-level=2 / dynamic-rd=0.00 / no-ssim-rd / signhide / no-tskip / nr-intra=0 / nr-inter=0 / no-constrained-intra / no-strong-intra-smoothing / max-merge=3 / limit-refs=3 / limit-modes / me=3 / subme=3 / merange=57 / temporal-mvp / weightp / no-weightb / no-analyze-src-pics / deblock=-3:-3 / no-sao / no-sao-non-deblock / rd=4 / no-early-skip / rskip / no-fast-intra / no-tskip-fast / no-cu-lossless / no-b-intra / no-splitrd-skip / rdpenalty=0 / psy-rd=2.00 / psy-rdoq=1.00 / no-rd-refine / no-lossless / cbqpoffs=0 / crqpoffs=0 / rc=crf / crf=17.0 / qcomp=0.60 / qpstep=4 / stats-write=0 / stats-read=0 / vbv-maxrate=160000 / vbv-bufsize=160000 / vbv-init=0.9 / crf-max=0.0 / crf-min=0.0 / ipratio=1.40 / pbratio=1.30 / aq-mode=1 / aq-strength=1.00 / cutree / zone-count=0 / no-strict-cbr / qg-size=32 / no-rc-grain / qpmax=69 / qpmin=0 / no-const-vbv / sar=1 / overscan=0 / videoformat=5 / range=0 / colorprim=9 / transfer=16 / colormatrix=9 / chromaloc=1 / chromaloc-top=2 / chromaloc-bottom=2 / display-window=0 / master-display=G(13250,34500)B(7500,3000)R(34000,16000)WP(15635,16450)L(40000000,50) / max-cll=3938,193 / min-luma=0 / max-luma=1023 / log2-max-poc-lsb=8 / vui-timing-info / vui-hrd-info / slices=1 / no-opt-qp-pps / no-opt-ref-list-length-pps / no-multi-pass-opt-rps / scenecut-bias=0.05 / no-opt-cu-delta-qp / no-aq-motion / hdr / hdr-opt / no-dhdr10-opt / no-idr-recovery-sei / analysis-reuse-level=5 / scale-factor=0 / refine-intra=0 / refine-inter=0 / refine-mv=0 / no-limit-sao / ctu-info=0 / no-lowpass-dct / refine-mv-type=0 / copy-pic=1 / max-ausize-factor=1.0 / no-dynamic-refine / no-single-sei
Default : Да
Forced : Нет
Цветовой диапазон : Limited
Основные цвета : BT.2020
Характеристики трансфера : PQ
Коэффициенты матрицы : BT.2020 non-constant
MasteringDisplay_ColorPrimaries : Display P3
MasteringDisplay_Luminance : min: 0.0050 cd/m2, max: 4000 cd/m2
MaxCLL : 3938 cd/m2
MaxFALL : 193 cd/m2

Аудио #1
Идентификатор : 2
Формат : DTS XLL
Формат/Информация : Digital Theater Systems
Коммерческое название : DTS-HD Master Audio
Идентификатор кодека : A_DTS
Продолжительность : 2 ч. 23 м.
Вид битрейта : Переменный
Битрейт : 3710 Кбит/сек
Каналы : 6 каналов
Channel layout : C L R Ls Rs LFE
Частота : 48,0 КГц
Частота кадров : 93,750 кадра/сек (512 SPF)
Битовая глубина : 24 бит
Метод сжатия : Без потерь
Размер потока : 3,71 Гбайт (12%)
Заголовок : MVO (Пифагор)
Язык : Russian
Default : Да
Forced : Нет

Аудио #2
Идентификатор : 3
Формат : AC-3
Формат/Информация : Audio Coding 3
Коммерческое название : Dolby Digital
Идентификатор кодека : A_AC3
Продолжительность : 2 ч. 23 м.
Вид битрейта : Постоянный
Битрейт : 256 Кбит/сек
Каналы : 2 канала
Channel layout : L R
Частота : 48,0 КГц
Частота кадров : 31,250 кадров/сек (1536 SPF)
Битовая глубина : 16 бит
Метод сжатия : С потерями
Размер потока : 262 Мбайт (1%)
Заголовок : дубляж (Первый канал)
Язык : Russian
ServiceKind/String : Complete Main
Default : Нет
Forced : Нет

Аудио #3
Идентификатор : 4
Формат : AC-3
Формат/Информация : Audio Coding 3
Коммерческое название : Dolby Digital
Идентификатор кодека : A_AC3
Продолжительность : 2 ч. 23 м.
Вид битрейта : Постоянный
Битрейт : 448 Кбит/сек
Каналы : 6 каналов
Channel layout : L R C LFE Ls Rs
Частота : 48,0 КГц
Частота кадров : 31,250 кадров/сек (1536 SPF)
Битовая глубина : 16 бит
Метод сжатия : С потерями
Размер потока : 459 Мбайт (1%)
Заголовок : MVO
Язык : Ukrainian
ServiceKind/String : Complete Main
Default : Нет
Forced : Нет

Аудио #4
Идентификатор : 5
Формат : AC-3
Формат/Информация : Audio Coding 3
Коммерческое название : Dolby Digital
Идентификатор кодека : A_AC3
Продолжительность : 2 ч. 23 м.
Вид битрейта : Постоянный
Битрейт : 448 Кбит/сек
Каналы : 6 каналов
Channel layout : L R C LFE Ls Rs
Частота : 48,0 КГц
Частота кадров : 31,250 кадров/сек (1536 SPF)
Битовая глубина : 16 бит
Метод сжатия : С потерями
Размер потока : 459 Мбайт (1%)
Язык : English
ServiceKind/String : Complete Main
Default : Нет
Forced : Нет

Текст #1
Идентификатор : 6
Формат : PGS
Режим смешивания : zlib
Идентификатор кодека : S_HDMV/PGS
Идентификатор кодека/Информация : Picture based subtitle format used on BDs/HD-DVDs
Продолжительность : 2 ч. 14 м.
Битрейт : 5316 бит/сек
ElementCount : 2522
Размер потока : 5,13 Мбайт (0%)
Язык : Russian
Default : Да
Forced : Нет

Текст #2
Идентификатор : 7
Формат : PGS
Режим смешивания : zlib
Идентификатор кодека : S_HDMV/PGS
Идентификатор кодека/Информация : Picture based subtitle format used on BDs/HD-DVDs
Продолжительность : 2 ч. 22 м.
Битрейт : 11,5 Кбит/сек
ElementCount : 2790
Размер потока : 11,7 Мбайт (0%)
Заголовок : full-SDH
Язык : English
Default : Нет
Forced : Нет

Меню
00:00:00.000 : :Chapter 01
00:05:18.985 : :Chapter 02
00:09:38.202 : :Chapter 03
00:11:17.968 : :Chapter 04
00:13:43.989 : :Chapter 05
00:17:43.062 : :Chapter 06
00:21:41.800 : :Chapter 07
00:23:23.026 : :Chapter 08
00:26:18.410 : :Chapter 09
00:29:46.576 : :Chapter 10
00:33:34.429 : :Chapter 11
00:39:06.052 : :Chapter 12
00:42:42.226 : :Chapter 13
00:48:00.794 : :Chapter 14
00:52:10.335 : :Chapter 15
00:55:23.778 : :Chapter 16
00:59:55.758 : :Chapter 17
01:02:42.467 : :Chapter 18
01:04:48.759 : :Chapter 19
01:07:57.406 : :Chapter 20
01:10:41.070 : :Chapter 21
01:15:30.484 : :Chapter 22
01:17:10.917 : :Chapter 23
01:20:36.581 : :Chapter 24
01:25:32.502 : :Chapter 25
01:28:35.476 : :Chapter 26
01:32:03.893 : :Chapter 27
01:34:15.149 : :Chapter 28
01:37:53.909 : :Chapter 29
01:41:19.198 : :Chapter 30
01:42:41.405 : :Chapter 31
01:46:37.933 : :Chapter 32
01:51:33.978 : :Chapter 33
01:55:05.815 : :Chapter 34
01:57:49.937 : :Chapter 35
02:01:46.424 : :Chapter 36
02:04:30.004 : :Chapter 37
02:07:18.130 : :Chapter 38
02:10:37.037 : :Chapter 39
02:14:19.384 : :Chapter 40
02:15:40.132 : :Chapter 41



Скачать Супермен через торрент https://c.radikal.ru/c21/1811/fd/95a63426ed74.jpg Скачать, смотреть онлайн Супермен бесплантно в хорошем качестве Описание: Цивилизация планеты Криптон стоит на грани гибели. Ученый Джор-Эл, чтобы спасти своему ребенку жизнь, отправляет его на Землю. ... 5 10 1
Торрент: Зарегистрирован [2018-11-07 13:30] · скачан: 0 раз
Статус: √ проверено
Размер: 31.27 GB
Как cкачать? Как скачать Супермен через торрент | UTorrent

28-11-2019 20:33  


Отключить вcю реклaмy на сайте, в т.ч. и в плеере онлайн просмотра!

    Дорогой пользователь! Огромная просьба, поблагодарите релизера, оцените раздачу и оставьте свои комментарий, если Вы скачали Супермен через торрент бесплатно!!
    Комментировать посты могут только пользователи прошедшие не сложную регистрацию
    Показать сообщения:    


    Супермен через торрент
    Скачать бесплатно Супермен
    Супермен скачать торрент
    Супермен смотреть онлайн
    Cкачать фильм Супермен бесплатно
    Супермен скачать торрент в хорошем качестве
    Супермен смотреть онлайн бесплатно в хорошем качестве
    Вы не можете начинать темы
    Вы не можете отвечать на сообщения
    Вы не можете редактировать свои сообщения
    Вы не можете удалять свои сообщения
    Вы не можете голосовать в опросах
    Вы не можете прикреплять файлы к сообщениям
    Вы можете скачивать файлы
    Супермен / Superman [1978, фантастика, боевик, драма, UHD BDRip 2160p] Дубляж + MVO смотреть онлайн, скачать торрент picoco.icu