Достать ножи: Стеклянная луковица

MVO

Добыча

Дубляж

Уэнсдэй

1 сезон

Тор

Дубляж

13 клиническая

1 сезон

Жестокая ночь

MVO

Одни из нас

1 сезон

Deluxe

pack

Рекомендуем

30

Пиратка

ВАЖНО

ВАЖНО

Ghostwire

Пиратка

jed

RePack

nioh2

RePack

RDR2

RePack

NEED FOR SPEED™ PAYBACK

RePack

скачать торрент

Кинопоиск HD

Острые козырьки 6 сезон

6 сезон

FAR CRY 6

RePack

скачать торрент

Лицензия

скачать торрент

MVO

1

1 сезон

скачать торрент

1 сезон

скачать торрент

Лицензия

  

Самолет президента / Air Force One (Вольфганг Петерсен) [1997, Боевик, триллер, UHD BDRemux 2160p] 2xAVO+MVO+Дубляж

Самолет президента через торрент piratbit.org

Размер: 54.21 GB | Добавлен: 4 года 2 мес. назад | Торрент скачан:10 раз
Смотреть онлайн | Скачать | Поддержите нас   

09-11-2018 12:31 Самолет президента Скачать торрент  

Самолет президента / Air Force One
Год выпуска: 1997
Страна: США, Германия
Жанр: Боевик, триллер
Продолжительность: 02:04:48
Перевод: Дублированный, профессиональный многоголосый, авторский
Субтитры: русские, английские

Режиссер: Вольфганг Петерсен

rating

В ролях:

Харрисон Форд, Гэри Олдман, Гленн Клоуз, Венди Крюсон, Лизель Мэтьюз, Пол Гилфойл, Ксандер Беркли, Уильям Х. Мэйси, Дин Стокуэлл, Том Эверетт

Описание:

Самолет президента — самый охраняемый объект ВВС США. Президент возвращается с переговоров в Москве вместе с семьей и администрацией. Но едва самолет поднимается в воздух, его захватывает группа террористов, которыми руководит непримиримый коммунист Коршунов. Он угрожает убить заложников, если их лидер, генерал Радек, заключенный в тюрьму, не будет освобожден. Президенту приходится бороться за жизнь близких ему людей и за будущее человечества.

Качество: UHD BDRemux 2160p
Формат: MKV

Видео: HEVC HDR, 53.5 Mбит/с, 3840x2160, 23.976 кадр/с
Аудио#1: Русский (AC3, 6 ch, 640 Кбит/с) / Дублированный (BD CEE)
Аудио#2: Русский (AC3, 6 ch, 640 Кбит/с) / Профессиональный многоголосый
Аудио#3: Русский (AC3, 6 ch, 640 Кбит/с) / Авторский (Живов)
Аудио#4: Русский (AC3, 6 ch, 640 Кбит/с) / Авторский (Гаврилов)
Аудио#5: Английский (TrueHD+Atmos, 8 ch, 5464 Кбит/c)
Аудио#6: Английский (AC3, 6 ch, 640 Кбит/c)
скриншот  скриншот  скриншот  скриншот  

скриншот  скриншот  скриншот  скриншот  

General
Unique ID : 88586706083756921987379105116229839027 (0x42A52DD26DB112F6D3956183B195A8B3)
Complete name : C:UsersPublicVideosSample VideosFilmyAir.Force.One.1997.BDRemux.2160p.HDR.MediaClub.mkv
Format : Matroska
Format version : Version 4
File size : 54.2 GiB
Duration : 2 h 4 min
Overall bit rate mode : Variable
Overall bit rate : 62.2 Mb/s
Encoded date : UTC 2018-11-08 21:13:34
Writing application : mkvmerge v28.2.0 ('The Awakening') 64-bit
Writing library : libebml v1.3.6 + libmatroska v1.4.9
Cover : Yes
Attachments : cover.jpg

Video
ID : 1
Format : HEVC
Format/Info : High Efficiency Video Coding
Commercial name : HDR10
Format profile : Main 10@L5.1@High
Codec ID : V_MPEGH/ISO/HEVC
Duration : 2 h 4 min
Bit rate : 53.5 Mb/s
Width : 3 840 pixels
Height : 2 160 pixels
Display aspect ratio : 16:9
Frame rate mode : Constant
Frame rate : 23.976 (24000/1001) FPS
Color space : YUV
Chroma subsampling : 4:2:0 (Type 2)
Bit depth : 10 bits
Bits/(Pixel*Frame) : 0.269
Stream size : 46.6 GiB (86%)
Title : BDRemux.2160p.HDR by Silverok
Default : Yes
Forced : No
Color range : Limited
Color primaries : BT.2020
Transfer characteristics : PQ
Matrix coefficients : BT.2020 non-constant
Mastering display color primaries : Display P3
Mastering display luminance : min: 0.0050 cd/m2, max: 4000 cd/m2
Maximum Content Light Level : 1452 cd/m2
Maximum Frame-Average Light Level : 519 cd/m2

Audio #1
ID : 2
Format : AC-3
Format/Info : Audio Coding 3
Commercial name : Dolby Digital
Codec ID : A_AC3
Duration : 2 h 4 min
Bit rate mode : Constant
Bit rate : 640 kb/s
Channel(s) : 6 channels
Channel layout : L R C LFE Ls Rs
Sampling rate : 48.0 kHz
Frame rate : 31.250 FPS (1536 SPF)
Bit depth : 16 bits
Compression mode : Lossy
Stream size : 571 MiB (1%)
Title : Дублированный (BD CEE)
Language : Russian
Service kind : Complete Main
Default : Yes
Forced : No

Audio #2
ID : 3
Format : AC-3
Format/Info : Audio Coding 3
Commercial name : Dolby Digital
Codec ID : A_AC3
Duration : 2 h 4 min
Bit rate mode : Constant
Bit rate : 640 kb/s
Channel(s) : 6 channels
Channel layout : L R C LFE Ls Rs
Sampling rate : 48.0 kHz
Frame rate : 31.250 FPS (1536 SPF)
Bit depth : 16 bits
Compression mode : Lossy
Stream size : 570 MiB (1%)
Title : Профессиональный многоголосый
Language : Russian
Service kind : Complete Main
Default : No
Forced : No

Audio #3
ID : 4
Format : AC-3
Format/Info : Audio Coding 3
Commercial name : Dolby Digital
Codec ID : A_AC3
Duration : 2 h 4 min
Bit rate mode : Constant
Bit rate : 640 kb/s
Channel(s) : 6 channels
Channel layout : L R C LFE Ls Rs
Sampling rate : 48.0 kHz
Frame rate : 31.250 FPS (1536 SPF)
Bit depth : 16 bits
Compression mode : Lossy
Stream size : 570 MiB (1%)
Title : Авторский (Живов)
Language : Russian
Service kind : Complete Main
Default : No
Forced : No

Audio #4
ID : 5
Format : AC-3
Format/Info : Audio Coding 3
Commercial name : Dolby Digital
Codec ID : A_AC3
Duration : 2 h 4 min
Bit rate mode : Constant
Bit rate : 640 kb/s
Channel(s) : 6 channels
Channel layout : L R C LFE Ls Rs
Sampling rate : 48.0 kHz
Frame rate : 31.250 FPS (1536 SPF)
Bit depth : 16 bits
Compression mode : Lossy
Stream size : 570 MiB (1%)
Title : Авторский (Гаврилов)
Language : Russian
Service kind : Complete Main
Default : No
Forced : No

Audio #5
ID : 6
Format : MLP FBA 16-ch
Format/Info : Meridian Lossless Packing FBA with 16-channel presentation
Commercial name : Dolby TrueHD with Dolby Atmos
Codec ID : A_TRUEHD
Duration : 2 h 4 min
Bit rate mode : Variable
Bit rate : 5 464 kb/s
Maximum bit rate : 8 559 kb/s
Channel(s) : 8 channels
Channel layout : L R C LFE Ls Rs Lb Rb
Sampling rate : 48.0 kHz
Frame rate : 1 200.000 FPS (40 SPF)
Compression mode : Lossless
Stream size : 4.75 GiB (9%)
Language : English
Default : No
Forced : No
Number of dynamic objects : 11
Bed channel count : 1 channel
Bed channel configuration : LFE

Audio #6
ID : 7
Format : AC-3
Format/Info : Audio Coding 3
Commercial name : Dolby Digital
Codec ID : A_AC3
Duration : 2 h 4 min
Bit rate mode : Constant
Bit rate : 640 kb/s
Channel(s) : 6 channels
Channel layout : L R C LFE Ls Rs
Sampling rate : 48.0 kHz
Frame rate : 31.250 FPS (1536 SPF)
Bit depth : 16 bits
Compression mode : Lossy
Stream size : 570 MiB (1%)
Language : English
Service kind : Complete Main
Default : No
Forced : No

Text #1
ID : 8
Format : UTF-8
Codec ID : S_TEXT/UTF8
Codec ID/Info : UTF-8 Plain Text
Duration : 1 h 56 min
Bit rate : 81 b/s
Count of elements : 1227
Stream size : 69.5 KiB (0%)
Title : Full
Language : Russian
Default : Yes
Forced : No

Text #2
ID : 9
Format : UTF-8
Codec ID : S_TEXT/UTF8
Codec ID/Info : UTF-8 Plain Text
Duration : 1 h 53 min
Bit rate : 54 b/s
Count of elements : 1240
Stream size : 45.2 KiB (0%)
Title : Full
Language : English
Default : No
Forced : No

Text #3
ID : 10
Format : PGS
Muxing mode : zlib
Codec ID : S_HDMV/PGS
Codec ID/Info : Picture based subtitle format used on BDs/HD-DVDs
Duration : 1 h 57 min
Bit rate : 34.7 kb/s
Count of elements : 2915
Stream size : 29.3 MiB (0%)
Title : SDH
Language : English
Default : No
Forced : No

Menu
00:00:00.000 : en:01. Opening Credits
00:03:00.471 : en:02. Kazakhstan
00:05:35.918 : en:03. Three Weeks Later
00:08:46.817 : en:04. "Welcome to Air Force One"
00:14:21.235 : en:05. The First Family
00:21:14.064 : en:06. Code Red
00:24:46.818 : en:07. VP Bennett
00:25:37.535 : en:08. Landing Aborted
00:32:56.307 : en:09. An Empty Pod
00:35:01.182 : en:10. Ivan Calls Kathryn
00:39:47.676 : en:11. Marshall Plan
00:43:02.121 : en:12. Element of Surprise
00:49:27.673 : en:13. "It's Time"
00:54:43.946 : en:14. Outside Call
00:57:50.425 : en:15. Firing on AF1
01:00:27.457 : en:16. Updating Marshall
01:04:01.045 : en:17. Melanie Mitchell
01:08:45.162 : en:18. Dumping Fuel
01:10:56.335 : en:19. Firefight
01:12:14.580 : en:20. "We Need Fuel"
01:13:34.743 : en:21. Freeing Hostages
01:14:50.402 : en:22. Sending a Fax
01:20:35.789 : en:23. Refueling Plane
01:22:39.120 : en:24. Parachute Drop
01:23:29.838 : en:25. Tanker Explodes
01:25:17.195 : en:26. Presidential Hostage
01:26:32.520 : en:27. Marshall Meets Ivan
01:31:56.510 : en:28. "Sign It"
01:33:02.785 : en:29. Releasing Radek
01:35:53.247 : en:30. Marshall Cuts Loose
01:38:08.340 : en:31. "Get Off My Plane!"
01:40:28.480 : en:32. Marshall Takes Over
01:44:31.556 : en:33. Under Attack
01:50:07.392 : en:34. Mid-Air Rescue
01:58:29.101 : en:35. Closing Credits




Скачать Самолет президента через торрент http://img11.lostpic.net/2018/11/09/f43943eb541c8b890ef61f3805d911a2.jpg Скачать, смотреть онлайн Самолет президента бесплантно в хорошем качестве Описание: Самолет президента — самый охраняемый объект ВВС США. Президент возвращается с переговоров в Москве вместе с семьей и ... 9 10 4
Info! Золотая раздача, скачанное не засчитывается.
Торрент: Зарегистрирован [2018-11-09 12:31] · скачан: 10 раз
Статус: √ проверено
Размер: 54.21 GB
Как cкачать? Как скачать Самолет президента через торрент | UTorrent

28-11-2019 20:33  


Отключить вcю реклaмy на сайте, в т.ч. и в плеере онлайн просмотра!

11-11-2018 03:21 Самолет президента Скачать торрент  

Фильм на один раз, посмотреть из-за спецэффектов и стереть этот бред ... аля великая ... Америка.



    Дорогой пользователь! Огромная просьба, поблагодарите релизера, оцените раздачу и оставьте свои комментарий, если Вы скачали Самолет президента через торрент бесплатно!!
    Комментировать посты могут только пользователи прошедшие не сложную регистрацию
    Показать сообщения:    


    Самолет президента через торрент
    Скачать бесплатно Самолет президента
    Самолет президента скачать торрент
    Самолет президента смотреть онлайн
    Cкачать фильм Самолет президента бесплатно
    Самолет президента скачать торрент в хорошем качестве
    Самолет президента смотреть онлайн бесплатно в хорошем качестве
    Вы не можете начинать темы
    Вы не можете отвечать на сообщения
    Вы не можете редактировать свои сообщения
    Вы не можете удалять свои сообщения
    Вы не можете голосовать в опросах
    Вы не можете прикреплять файлы к сообщениям
    Вы можете скачивать файлы
    Самолет президента / Air Force One [1997, Боевик, триллер, UHD BDRemux 2160p] 2xAVO+MVO+Дубляж смотреть онлайн, скачать торрент picoco.icu