Присоединяйтесь к нам в Telegram!, здесь всегда актуальный адрес сайта, оперативная поддержка и многое другое!!

>

5.9

iTunes

7.4

iTunes

9.4

1 сезон

1

7.4

2 сезон

7.2

iTunes

7.3

iTunes

13

6.1

iTunes

8.3

Пиратка

30

ULTIMATE

pack

9.9

Лицензия

ВАЖНО

ИГРА 18+

pack

7.3

RePack

MK11

7.7

RePack

jed

7.8

RePack

fifa19

8.5

RePack

RDR2

RePack

NEED FOR SPEED™ PAYBACK

5 сезон

9 сезон

Бесстыжие 9 сезон

Все сериалы

все сериалы на PB.wtf

RePack

FAR CRY 5

Anonymous, доброй ночи, мы катастрофически не успеваем собрать деньги на оплату серверов, помогите нам пожалуйста 5,10,15р., для нас важна любая помощь . В качестве благодарности мы отключим Вам всю рекламу на сайте (укажите свой ник в строку Ваше имя)!

×
  
Magnet ссылка

Кабель / Cord (Пабло Гонзалез / Pablo Gonzalez) [2015, ужасы, фантастика, фэнтези, WEBRip-AVC] [VO] (datynet) piratbit.org

Кабель через торрент piratbit.org

Размер: 1.38 GB | Добавлен: 3 года назад | Торрент скачан:157 раз
Смотреть онлайн Кабель | Скачать    Ребята, помогите собрать деньги на оплату серверов!!!

11-11-2018 16:43 Кабель Скачать торрент  

Кабель / Cord Год выпуска: 2015
Страна: Колумбия, Франция, Германия
Жанр: ужасы, фантастика, фэнтези
Продолжительность: 01:04:22
Озвучание: Любительское (одноголосое закадровое) datynet
; по переводу: Куценко
Субтитры: нет

Режиссер: Пабло Гонзалез / Pablo Gonzalez

В ролях: Лаура Де Бур, Майкл Шумахер, Кристиан Веверка.

Описание: В постапокалиптическом мире нескончаемой зимы под землей живет редкий отряд чужаков. Из-за их антисанитарных условий сексуальный контакт стал опасным. Мастурбация стала парадигмой сексуального опыта, и с этой целью появилось множество низкотехнологичных устройств. В этой мрачной реальности Чуперски (торговец такими машинами) и Таня (сексуальная наркоманка) заключают сделку: она позволит ему экспериментировать новые устройства на своем теле в обмен на удовольствие. Однако вскоре их отношения выходят из-под контроля.


rating
Доп. информация: 4 победы и 2 номинации:
Cartagena Film Festival 2015
Fantasporto 2016
Palmares Mauvais Genre Festival 2016




Сэмпл: http://multi-up.com/1214671

Качество видео: WEBRip-AVC
Формат видео: MKV
Видео: 1152x648 (16:9), 23.976 fps, MPEG4 Video (H264) Main@L3.1 ~1 811 kbps avg, 0.157 bit/pixel
Аудио: 48 kHz, MPEG Layer 3, 2 ch, ~192.00 kbps avg
General
Unique ID : 219325583357784869916067269512291789319 (0xA50092239CAA9EFE29217C49D74DAA07)
Complete name : Cord.2015.mkv
Format : Matroska
Format version : Version 2
File size : 1.38 GiB
Duration : 1 h 4 min
Overall bit rate mode : Variable
Overall bit rate : 2 064 kb/s
Encoded date : UTC 2018-11-11 16:17:07 / UTC 2018-11-11 16:17:07
Writing application : Lavf54.63.104
Writing library : Lavf54.63.104

Video
ID : 1
Format : AVC
Format/Info : Advanced Video Codec
Format profile : Main@L3.1
Format settings, CABAC : Yes
Format settings, RefFrames : 1 frame
Format settings, GMC : No warppoints
Format settings, Matrix : Custom
Codec ID : V_MPEG4/ISO/AVC
Duration : 1 h 4 min
Bit rate : 1 811 kb/s
Maximum bit rate : 8 597 kb/s
Width : 1 152 pixels
Height : 648 pixels
Display aspect ratio : 16:9
Frame rate mode : Constant
Frame rate : 23.976 (24000/1001) FPS
Color space : YUV
Chroma subsampling : 4:2:0
Bit depth : 8 bits
Scan type : Progressive
Bits/(Pixel*Frame) : 0.157
Stream size : 1.26 GiB (92%)
Default : Yes
Forced : No

Audio
ID : 2
Format : MPEG Audio
Format version : Version 1
Format profile : Layer 3
Mode : Joint stereo
Mode extension : MS Stereo
Codec ID : A_MPEG/L3
Codec ID/Hint : MP3
Duration : 1 h 4 min
Bit rate mode : Constant
Bit rate : 192 kb/s
Channel(s) : 2 channels
Sampling rate : 48.0 kHz
Compression mode : Lossy
Stream size : 88.4 MiB (6%)
Default : Yes
Forced : No
скриншот  скриншот  скриншот  
piratbit.org



Скачать Кабель через торрент https://d.radikal.ru/d19/1811/7b/481564d0f3cc.jpg Скачать, смотреть онлайн Кабель бесплантно в хорошем качестве Описание: В постапокалиптическом мире нескончаемой зимы под землей живет редкий отряд чужаков. Из-за их антисанитарных условий сексуальный ... 8.7 10 7
Торрент: Зарегистрирован [2018-11-11 16:43] · скачан: 157 раз
Статус: √ проверено
Размер: 1.38 GB
Как cкачать? Как скачать Кабель через торрент | UTorrent

28-11-2019 20:33  

Отключить всю рекламу на сайте

    Дорогой пользователь! Огромная просьба, поблагодарите релизера, оцените раздачу и оставьте свои комментарий, если Вы скачали Кабель через торрент бесплатно!
    Комментировать посты могут только пользователи прошедшие не сложную регистрацию
    Показать сообщения:    

    Кабель через торрент
    Скачать бесплатно Кабель
    Кабель скачать торрент
    Кабель смотреть онлайн
    Cкачать фильм Кабель бесплатно
    Кабель скачать торрент в хорошем качестве
    Кабель смотреть онлайн бесплатно в хорошем качестве


    Вы не можете начинать темы
    Вы не можете отвечать на сообщения
    Вы не можете редактировать свои сообщения
    Вы не можете удалять свои сообщения
    Вы не можете голосовать в опросах
    Вы не можете прикреплять файлы к сообщениям
    Вы можете скачивать файлы