Достать ножи: Стеклянная луковица

MVO

Добыча

Дубляж

Уэнсдэй

1 сезон

Тор

Дубляж

13 клиническая

1 сезон

Жестокая ночь

MVO

Одни из нас

1 сезон

Deluxe

pack

Рекомендуем

30

Пиратка

ВАЖНО

ВАЖНО

Ghostwire

Пиратка

jed

RePack

nioh2

RePack

RDR2

RePack

NEED FOR SPEED™ PAYBACK

RePack

скачать торрент

Кинопоиск HD

Острые козырьки 6 сезон

6 сезон

FAR CRY 6

RePack

скачать торрент

Лицензия

скачать торрент

MVO

1

1 сезон

скачать торрент

1 сезон

скачать торрент

Лицензия

  

Король вне закона / Outlaw King (Дэвид Маккензи) [2018, боевик, драма, биография, UHD WEBRip 2160p] Дубляж [Невафильм]

Король вне закона через торрент piratbit.org

Размер: 16 GB | Добавлен: 4 года 2 мес. назад | Торрент скачан:212 раз
Смотреть онлайн | Скачать | Поддержите нас   

13-11-2018 01:43 Король вне закона Скачать торрент  

Король вне закона / Outlaw King

Год выпуска: 2018
Страна: Великобритания, США
Жанр: боевик, драма, биография, история
Продолжительность: 02:01:38
Перевод: Дублированный | Невафильм
Субтитры: Русские (Форсированные, полные), английские (Full, SDH)
Режиссер: Дэвид Маккензи
В ролях:

Крис Пайн (Robert Bruce, Earl of Carrick), Стивен Диллэйн (King Edward I of England), Rebecca Robin (Queen Margaret of England), Билли Хоул (Edward, Prince of Wales), Пол Блэр (William Lamberton, Bishop of St. Andrews), Сэм Спруэлл (Aymer de Valence, Earl of Pembroke), Джонатан Филлипс (Richard de Burgh, Earl of Ulster), Ben Clifford (Piers Gaveston, Earn of Cornwall), Джэми МакЛахлан (Roger de Mowbray), Данкан Лакруа (Henry de Percy, Baron Percy), Кевин Мэйнс (John Macduff, Earl of Buchan), Каллэн Мулвей (John III Comyn, Lord of Badenoch)
Описание:
История Роберта Брюса, одного из величайших шотландских монархов, организатора обороны страны в начальный период войны за независимость против Англии.
Рейтинг:

MPAA: R - Лицам до 17 лет обязательно присутствие взрослого
Качество: UHD WEBRip 2160p
Формат: MKV
Видео: HEVC HDR, 18.1 Mбит/с, 3840x1604, 24.000 кадр/с
Аудио 1: Русский (AC3, 6 ch, 384 Кбит/с) / Дублированный (Невафильм)
Аудио 2: Английский (E-AC3, 6 ch, 448 Кбит/с)
General
Unique ID : 140161705848902819959831413596982941342 (0x697229A273DCB76840D468743D15169E)
Complete name : C:\Users\Public\Videos\Sample Videos\Filmy\Outlaw.King.2018.WEBRip.2160p.HDR.MediaClub.mkv
Format : Matroska
Format version : Version 4
File size : 16.0 GiB
Duration : 2 h 1 min
Overall bit rate : 18.8 Mb/s
Encoded date : UTC 2018-11-12 23:40:04
Writing application : mkvmerge v28.2.0 ('The Awakening') 64-bit
Writing library : libebml v1.3.6 + libmatroska v1.4.9
Cover : Yes
Attachments : cover.jpg

Video
ID : 1
Format : HEVC
Format/Info : High Efficiency Video Coding
Commercial name : HDR10
Format profile : Main 10@L5.1@High
Codec ID : V_MPEGH/ISO/HEVC
Duration : 2 h 1 min
Bit rate : 18.1 Mb/s
Width : 3 840 pixels
Height : 1 604 pixels
Display aspect ratio : 2.40:1
Frame rate mode : Constant
Frame rate : 24.000 FPS
Color space : YUV
Chroma subsampling : 4:2:0 (Type 2)
Bit depth : 10 bits
Bits/(Pixel*Frame) : 0.122
Stream size : 15.3 GiB (96%)
Title : WEBRip.2160p.HDR by Silverok
Writing library : x265 2.8+68-fa57fa584898:[Linux][GCC 7.3.0][64 bit] 10bit
Encoding settings : cpuid=1111039 / frame-threads=5 / wpp / no-pmode / no-pme / no-psnr / no-ssim / log-level=2 / input-csp=1 / input-res=3840x1604 / interlace=0 / total-frames=0 / level-idc=51 / high-tier=1 / uhd-bd=0 / ref=4 / no-allow-non-conformance / repeat-headers / annexb / no-aud / no-hrd / info / hash=0 / no-temporal-layers / open-gop / min-keyint=24 / keyint=250 / gop-lookahead=0 / bframes=11 / b-adapt=2 / b-pyramid / bframe-bias=0 / rc-lookahead=25 / lookahead-slices=4 / scenecut=40 / radl=0 / no-intra-refresh / ctu=64 / min-cu-size=8 / rect / no-amp / max-tu-size=32 / tu-inter-depth=1 / tu-intra-depth=1 / limit-tu=0 / rdoq-level=2 / dynamic-rd=0.00 / no-ssim-rd / signhide / no-tskip / nr-intra=0 / nr-inter=0 / no-constrained-intra / strong-intra-smoothing / max-merge=3 / limit-refs=3 / limit-modes / me=2 / subme=6 / merange=57 / temporal-mvp / weightp / no-weightb / no-analyze-src-pics / deblock=-3:-3 / no-sao / no-sao-non-deblock / rd=4 / no-early-skip / no-rskip / no-fast-intra / no-tskip-fast / no-cu-lossless / no-b-intra / no-splitrd-skip / rdpenalty=0 / psy-rd=4.00 / psy-rdoq=10.00 / no-rd-refine / no-lossless / cbqpoffs=0 / crqpoffs=0 / rc=crf / crf=21.0 / qcomp=0.60 / qpstep=1 / stats-write=0 / stats-read=0 / vbv-maxrate=160000 / vbv-bufsize=160000 / vbv-init=0.9 / crf-max=0.0 / crf-min=0.0 / ipratio=1.25 / pbratio=1.20 / aq-mode=3 / aq-strength=0.65 / no-cutree / zone-count=0 / no-strict-cbr / qg-size=32 / rc-grain / qpmax=69 / qpmin=0 / const-vbv / sar=1 / overscan=0 / videoformat=5 / range=0 / colorprim=9 / transfer=16 / colormatrix=9 / chromaloc=1 / chromaloc-top=2 / chromaloc-bottom=2 / display-window=0 / master-display=G(13250,34500)B(7500,3000)R(34000,16000)WP(15635,16450)L(40000000,50) / max-cll=700,249 / min-luma=0 / max-luma=1023 / log2-max-poc-lsb=8 / vui-timing-info / vui-hrd-info / slices=1 / no-opt-qp-pps / no-opt-ref-list-length-pps / no-multi-pass-opt-rps / scenecut-bias=0.05 / no-opt-cu-delta-qp / no-aq-motion / hdr / hdr-opt / no-dhdr10-opt / no-idr-recovery-sei / analysis-reuse-level=5 / scale-factor=0 / refine-intra=0 / refine-inter=0 / refine-mv=0 / no-limit-sao / ctu-info=0 / no-lowpass-dct / refine-mv-type=0 / copy-pic=1 / max-ausize-factor=1.0 / no-dynamic-refine / no-single-sei
Default : Yes
Forced : No
Color range : Limited
Color primaries : BT.2020
Transfer characteristics : PQ
Matrix coefficients : BT.2020 non-constant
Mastering display color primaries : Display P3
Mastering display luminance : min: 0.0050 cd/m2, max: 4000 cd/m2
Maximum Content Light Level : 700 cd/m2
Maximum Frame-Average Light Level : 249 cd/m2

Audio #1
ID : 2
Format : AC-3
Format/Info : Audio Coding 3
Commercial name : Dolby Digital
Codec ID : A_AC3
Duration : 2 h 1 min
Bit rate mode : Constant
Bit rate : 384 kb/s
Channel(s) : 6 channels
Channel layout : L R C LFE Ls Rs
Sampling rate : 48.0 kHz
Frame rate : 31.250 FPS (1536 SPF)
Bit depth : 16 bits
Compression mode : Lossy
Stream size : 334 MiB (2%)
Title : Дублированный (Невафильм)
Language : Russian
Service kind : Complete Main
Default : Yes
Forced : No

Audio #2
ID : 3
Format : E-AC-3 JOC
Format/Info : Enhanced AC-3 with Joint Object Coding
Commercial name : Dolby Digital Plus with Dolby Atmos
Codec ID : A_EAC3
Duration : 2 h 1 min
Bit rate mode : Constant
Bit rate : 448 kb/s
Channel(s) : 6 channels
Channel layout : L R C LFE Ls Rs
Sampling rate : 48.0 kHz
Frame rate : 31.250 FPS (1536 SPF)
Compression mode : Lossy
Stream size : 388 MiB (2%)
Language : English
Service kind : Complete Main
Default : No
Forced : No
Complexity index : 16
Number of dynamic objects : 15
Bed channel count : 1 channel
Bed channel configuration : LFE

Text #1
ID : 4
Format : UTF-8
Codec ID : S_TEXT/UTF8
Codec ID/Info : UTF-8 Plain Text
Duration : 2 h 0 min
Bit rate : 3 b/s
Count of elements : 43
Stream size : 2.84 KiB (0%)
Title : Forced
Language : Russian
Default : Yes
Forced : No

Text #2
ID : 5
Format : UTF-8
Codec ID : S_TEXT/UTF8
Codec ID/Info : UTF-8 Plain Text
Duration : 2 h 0 min
Bit rate : 63 b/s
Count of elements : 1198
Stream size : 56.1 KiB (0%)
Title : Full
Language : Russian
Default : No
Forced : No

Text #3
ID : 6
Format : UTF-8
Codec ID : S_TEXT/UTF8
Codec ID/Info : UTF-8 Plain Text
Duration : 1 h 51 min
Bit rate : 39 b/s
Count of elements : 1144
Stream size : 32.2 KiB (0%)
Title : Full
Language : English
Default : No
Forced : No

Text #4
ID : 7
Format : UTF-8
Codec ID : S_TEXT/UTF8
Codec ID/Info : UTF-8 Plain Text
Duration : 1 h 59 min
Bit rate : 47 b/s
Count of elements : 1387
Stream size : 41.6 KiB (0%)
Title : SDH
Language : English
Default : No
Forced : No



Скачать Король вне закона через торрент https://b.radikal.ru/b17/1811/73/99a5f525773b.png Скачать, смотреть онлайн Король вне закона бесплантно в хорошем качестве Описание: История Роберта Брюса, одного из величайших шотландских монархов, организатора обороны страны в начальный период войны за ... 9.3 10 8
Info! Золотая раздача, скачанное не засчитывается.
Торрент: Зарегистрирован [2018-11-13 01:43] · скачан: 212 раз
Статус: √ проверено
Размер: 16 GB
Как cкачать? Как скачать Король вне закона через торрент | UTorrent

% Раздел Тема Автор DL S | L
Фильмы (WEB-DL 720p, 1080p) [ 5.59 GB ] Король вне закона / Outlaw King | | 1080p -=BIGBOSS=- Скачать
2 | 0
Фильмы (WEB-DL 720p, 1080p) [ 13.43 GB ] Король вне закона / Outlaw King | NewStudio | 1080p killermax2013 Скачать
1 | 0
Фильмы 2018 [DVDrip, WEB-DLRip, HDrip] (DUB, MVO) [ 1.45 GB ] Король вне закона / Outlaw King | DUB | WEBRip -Lexx- Скачать
2 | 0
Фильмы (WEB-DL 720p, 1080p) [ 13.21 GB ] Король вне закона / Outlaw King | NewStudio | 1080p bober100 Скачать
1 | 0
Фильмы (WEB-DL 720p, 1080p) [ 3.19 GB ] Король вне закона / Outlaw King | DUB | 720p bober100 Скачать
1 | 0
Фильмы 2018 [DVDrip, WEB-DLRip, HDrip] (DUB, MVO) [ 721 MB ] Король вне закона / Outlaw King | Дубляж "Невафильм" | WEBRip, Дубляж "Невафильм" coc900 Скачать
1 | 0

28-11-2019 20:33  


Отключить вcю реклaмy на сайте, в т.ч. и в плеере онлайн просмотра!

    Дорогой пользователь! Огромная просьба, поблагодарите релизера, оцените раздачу и оставьте свои комментарий, если Вы скачали Король вне закона через торрент бесплатно!!
    Комментировать посты могут только пользователи прошедшие не сложную регистрацию
    Показать сообщения:    


    Король вне закона через торрент
    Скачать бесплатно Король вне закона
    Король вне закона скачать торрент
    Король вне закона смотреть онлайн
    Cкачать фильм Король вне закона бесплатно
    Король вне закона скачать торрент в хорошем качестве
    Король вне закона смотреть онлайн бесплатно в хорошем качестве
    Вы не можете начинать темы
    Вы не можете отвечать на сообщения
    Вы не можете редактировать свои сообщения
    Вы не можете удалять свои сообщения
    Вы не можете голосовать в опросах
    Вы не можете прикреплять файлы к сообщениям
    Вы можете скачивать файлы
    Король вне закона / Outlaw King [2018, боевик, драма, биография, UHD WEBRip 2160p] Дубляж [Невафильм] смотреть онлайн, скачать торрент picoco.icu