Достать ножи: Стеклянная луковица

MVO

Добыча

Дубляж

Уэнсдэй

1 сезон

Тор

Дубляж

13 клиническая

1 сезон

Жестокая ночь

MVO

Одни из нас

1 сезон

Deluxe

pack

Рекомендуем

30

Пиратка

ВАЖНО

ВАЖНО

Ghostwire

Пиратка

jed

RePack

nioh2

RePack

RDR2

RePack

NEED FOR SPEED™ PAYBACK

RePack

скачать торрент

Кинопоиск HD

Острые козырьки 6 сезон

6 сезон

FAR CRY 6

RePack

скачать торрент

Лицензия

скачать торрент

MVO

1

1 сезон

скачать торрент

1 сезон

скачать торрент

Лицензия

  

Рэмбо 3 / Rambo III (Питер МакДональд) [1988, боевик, триллер, приключения, UHD BDRemux 2160p] 3xMVO + DVO + 4xAVO

Рэмбо 3 через торрент piratbit.org

Размер: 49.64 GB | Добавлен: 4 года 2 мес. назад | Торрент скачан:40 раз
Смотреть онлайн | Скачать | Поддержите нас   

13-11-2018 10:27 Рэмбо 3 Скачать торрент  

Рэмбо 3 / Rambo III

Год выпуска: 1988
Страна: США
Жанр: боевик, триллер, приключения, военный
Продолжительность: 01:42:13
Перевод: Профессиональный многоголосый, профессиональный двухголосый, авторский
Субтитры: Русские, английские
Режиссер: Питер МакДональд
В ролях:

Сильвестр Сталлоне (Rambo), Ричард Кренна (Col. Samuel Trautman), Марк Де Йонге (Colonel Zaysen), Кертвуд Смит (Griggs), Спирос Фокас (Masoud), Сэссон Габаи (Mousa), Дуди Шоуа (Hamid), Рэнди Рэни (Kourov), Маркус Гилберт (Tomask), Алон Абутбул (Nissem), Махмуд Ассадоллахи (Rahim), Йосси Шиллоах (Khalid)
Описание:
Ветеран вьетнамской войны Джон Рэмбо, уставший от своих военных и гражданских подвигов, поселяется в буддистском монастыре. Однако долго пребывать в мире ему не приходится. Захвачен в плен его бывший командир, и Рэмбо отправляется его спасать, вступая в отчаянную и неравную схватку с противником.
Рейтинг:

MPAA: R - Лицам до 17 лет обязательно присутствие взрослого
Качество: UHD BDRemux 2160p
Формат: MKV
Видео: HEVC HDR, 57.4 Mбит/с, 3840x2160, 24.000 кадр/с
Аудио 1: Русский (DTS, 6 ch, 1510 Кбит/с) / Профессиональный многоголосый (Киномания)
Аудио 2: Русский (AC3, 6 ch, 448 Кбит/с) / Профессиональный многоголосый (CP Digital)
Аудио 3: Русский (AC3, 2 ch, 192 Кбит/с) / Профессиональный многоголосый (Лазер Видео)
Аудио 4: Русский (AC3, 2 ch, 192 Кбит/с) / Профессиональный двухголосый (Рен ТВ)
Аудио 5: Русский (DTS, 6 ch, 1510 Кбит/с) / Авторский (Андрей Гаврилов)
Аудио 6: Русский (DTS, 6 ch, 1510 Кбит/с) / Авторский (Василий Горчаков)
Аудио 7: Русский (DTS, 6 ch, 1510 Кбит/с) / Авторский (Григорий Либергал)
Аудио 8: Русский (DTS, 6 ch, 1510 Кбит/с) / Авторский (Юрий Живов)
Аудио 9: Английский (DTS-HD MA, 6 ch, 4242 Кбит/с)
Навигация по главам: есть
General
Unique ID : 35470081223027692184835682944465409087 (0x1AAF4A061C19B103910879FC4516943F)
Complete name : C:\Users\Public\Videos\Sample Videos\Filmy\Rambo.III.1988.BDRemux.2160p.HDR.MediaClub.mkv
Format : Matroska
Format version : Version 4
File size : 49.6 GiB
Duration : 1 h 42 min
Overall bit rate mode : Variable
Overall bit rate : 69.5 Mb/s
Encoded date : UTC 2018-11-12 21:41:30
Writing application : mkvmerge v28.2.0 ('The Awakening') 64-bit
Writing library : libebml v1.3.6 + libmatroska v1.4.9
Cover : Yes
Attachments : cover.jpg

Video
ID : 1
Format : HEVC
Format/Info : High Efficiency Video Coding
Commercial name : HDR10
Format profile : Main 10@L5.1@High
Codec ID : V_MPEGH/ISO/HEVC
Duration : 1 h 41 min
Bit rate : 57.4 Mb/s
Width : 3 840 pixels
Height : 2 160 pixels
Display aspect ratio : 16:9
Frame rate mode : Constant
Frame rate : 24.000 FPS
Color space : YUV
Chroma subsampling : 4:2:0 (Type 2)
Bit depth : 10 bits
Bits/(Pixel*Frame) : 0.288
Stream size : 40.7 GiB (82%)
Title : BDRemux.2160p.HDR by Silverok
Default : Yes
Forced : No
Color range : Limited
Color primaries : BT.2020
Transfer characteristics : PQ
Matrix coefficients : BT.2020 non-constant
Mastering display color primaries : Display P3
Mastering display luminance : min: 0.0050 cd/m2, max: 1000 cd/m2
Maximum Content Light Level : 479 cd/m2
Maximum Frame-Average Light Level : 468 cd/m2

Audio #1
ID : 2
Format : DTS
Format/Info : Digital Theater Systems
Codec ID : A_DTS
Duration : 1 h 41 min
Bit rate mode : Constant
Bit rate : 1 510 kb/s
Channel(s) : 6 channels
Channel layout : C L R Ls Rs LFE
Sampling rate : 48.0 kHz
Frame rate : 93.750 FPS (512 SPF)
Bit depth : 24 bits
Compression mode : Lossy
Stream size : 1.07 GiB (2%)
Title : Профессиональный многоголосый (Киномания)
Language : Russian
Default : Yes
Forced : No

Audio #2
ID : 3
Format : AC-3
Format/Info : Audio Coding 3
Commercial name : Dolby Digital
Codec ID : A_AC3
Duration : 1 h 41 min
Bit rate mode : Constant
Bit rate : 448 kb/s
Channel(s) : 6 channels
Channel layout : L R C LFE Ls Rs
Sampling rate : 48.0 kHz
Frame rate : 31.250 FPS (1536 SPF)
Bit depth : 16 bits
Compression mode : Lossy
Stream size : 325 MiB (1%)
Title : Профессиональный многоголосый (CP Digital)
Language : Russian
Service kind : Complete Main
Default : No
Forced : No

Audio #3
ID : 4
Format : AC-3
Format/Info : Audio Coding 3
Commercial name : Dolby Digital
Codec ID : A_AC3
Duration : 1 h 40 min
Bit rate mode : Constant
Bit rate : 192 kb/s
Channel(s) : 2 channels
Channel layout : L R
Sampling rate : 48.0 kHz
Frame rate : 31.250 FPS (1536 SPF)
Bit depth : 16 bits
Compression mode : Lossy
Stream size : 139 MiB (0%)
Title : Профессиональный многоголосый (Лазер Видео)
Language : Russian
Service kind : Complete Main
Default : No
Forced : No

Audio #4
ID : 5
Format : AC-3
Format/Info : Audio Coding 3
Commercial name : Dolby Digital
Codec ID : A_AC3
Duration : 1 h 40 min
Bit rate mode : Constant
Bit rate : 192 kb/s
Channel(s) : 2 channels
Channel layout : L R
Sampling rate : 48.0 kHz
Frame rate : 31.250 FPS (1536 SPF)
Bit depth : 16 bits
Compression mode : Lossy
Stream size : 139 MiB (0%)
Title : Профессиональный двухголосый (Рен ТВ)
Language : Russian
Service kind : Complete Main
Default : No
Forced : No

Audio #5
ID : 6
Format : DTS
Format/Info : Digital Theater Systems
Codec ID : A_DTS
Duration : 1 h 41 min
Bit rate mode : Constant
Bit rate : 1 510 kb/s
Channel(s) : 6 channels
Channel layout : C L R Ls Rs LFE
Sampling rate : 48.0 kHz
Frame rate : 93.750 FPS (512 SPF)
Bit depth : 24 bits
Compression mode : Lossy
Stream size : 1.07 GiB (2%)
Title : Авторский (Андрей Гаврилов)
Language : Russian
Default : No
Forced : No

Audio #6
ID : 7
Format : DTS
Format/Info : Digital Theater Systems
Codec ID : A_DTS
Duration : 1 h 41 min
Bit rate mode : Constant
Bit rate : 1 510 kb/s
Channel(s) : 6 channels
Channel layout : C L R Ls Rs LFE
Sampling rate : 48.0 kHz
Frame rate : 93.750 FPS (512 SPF)
Bit depth : 24 bits
Compression mode : Lossy
Stream size : 1.07 GiB (2%)
Title : Авторский (Василий Горчаков)
Language : Russian
Default : No
Forced : No

Audio #7
ID : 8
Format : DTS
Format/Info : Digital Theater Systems
Codec ID : A_DTS
Duration : 1 h 41 min
Bit rate mode : Constant
Bit rate : 1 510 kb/s
Channel(s) : 6 channels
Channel layout : C L R Ls Rs LFE
Sampling rate : 48.0 kHz
Frame rate : 93.750 FPS (512 SPF)
Bit depth : 24 bits
Compression mode : Lossy
Stream size : 1.07 GiB (2%)
Title : Авторский (Григорий Либергал)
Language : Russian
Default : No
Forced : No

Audio #8
ID : 9
Format : DTS
Format/Info : Digital Theater Systems
Codec ID : A_DTS
Duration : 1 h 42 min
Bit rate mode : Constant
Bit rate : 1 510 kb/s
Channel(s) : 6 channels
Channel layout : C L R Ls Rs LFE
Sampling rate : 48.0 kHz
Frame rate : 93.750 FPS (512 SPF)
Bit depth : 24 bits
Compression mode : Lossy
Stream size : 1.08 GiB (2%)
Title : Авторский (Юрий Живов)
Language : Russian
Default : No
Forced : No

Audio #9
ID : 10
Format : DTS XLL
Format/Info : Digital Theater Systems
Commercial name : DTS-HD Master Audio
Codec ID : A_DTS
Duration : 1 h 41 min
Bit rate mode : Variable
Bit rate : 4 242 kb/s
Channel(s) : 6 channels
Channel layout : C L R Ls Rs LFE
Sampling rate : 48.0 kHz
Frame rate : 93.750 FPS (512 SPF)
Bit depth : 24 bits
Compression mode : Lossless
Stream size : 3.01 GiB (6%)
Language : English
Default : No
Forced : No

Text #1
ID : 11
Format : UTF-8
Codec ID : S_TEXT/UTF8
Codec ID/Info : UTF-8 Plain Text
Duration : 1 h 29 min
Bit rate : 41 b/s
Count of elements : 521
Stream size : 26.9 KiB (0%)
Title : Full
Language : Russian
Default : No
Forced : No

Text #2
ID : 12
Format : UTF-8
Codec ID : S_TEXT/UTF8
Codec ID/Info : UTF-8 Plain Text
Duration : 1 h 30 min
Bit rate : 22 b/s
Count of elements : 481
Stream size : 14.8 KiB (0%)
Title : Full
Language : English
Default : Yes
Forced : No

Menu
00:00:00.000 : en:Stick Fighting
00:07:19.522 : en:My War is Over
00:14:30.870 : en:No Chance of Escape
00:22:07.952 : en:I'm No Tourist
00:27:56.216 : en:Holy Warriors
00:36:20.470 : en:Friendly Game
00:42:00.017 : en:This is Not Your War
00:48:49.718 : en:Minefield
00:55:52.683 : en:Inside the Fortress
01:02:10.101 : en:No Mercy
01:09:55.274 : en:Heal the Wounds
01:14:44.271 : en:Saving Trautman
01:19:48.659 : en:Your Worst Nightmare
01:26:27.432 : en:Surrender Now!
01:33:52.752 : en:Final Confrontation
01:36:21.901 : en:Credits



Скачать Рэмбо 3 через торрент https://c.radikal.ru/c13/1811/88/418d6e8a4fcd.jpg Скачать, смотреть онлайн Рэмбо 3 бесплантно в хорошем качестве Описание: Ветеран вьетнамской войны Джон Рэмбо, уставший от своих военных и гражданских подвигов, поселяется в буддистском монастыре. ... 10 10 4
Info! Золотая раздача, скачанное не засчитывается.
Торрент: Зарегистрирован [2018-11-13 10:27] · скачан: 40 раз
Статус: √ проверено
Размер: 49.64 GB
Как cкачать? Как скачать Рэмбо 3 через торрент | UTorrent

28-11-2019 20:33  


Отключить вcю реклaмy на сайте, в т.ч. и в плеере онлайн просмотра!

    Дорогой пользователь! Огромная просьба, поблагодарите релизера, оцените раздачу и оставьте свои комментарий, если Вы скачали Рэмбо 3 через торрент бесплатно!!
    Комментировать посты могут только пользователи прошедшие не сложную регистрацию
    Показать сообщения:    


    Рэмбо 3 через торрент
    Скачать бесплатно Рэмбо 3
    Рэмбо 3 скачать торрент
    Рэмбо 3 смотреть онлайн
    Cкачать фильм Рэмбо 3 бесплатно
    Рэмбо 3 скачать торрент в хорошем качестве
    Рэмбо 3 смотреть онлайн бесплатно в хорошем качестве
    Вы не можете начинать темы
    Вы не можете отвечать на сообщения
    Вы не можете редактировать свои сообщения
    Вы не можете удалять свои сообщения
    Вы не можете голосовать в опросах
    Вы не можете прикреплять файлы к сообщениям
    Вы можете скачивать файлы
    Рэмбо 3 / Rambo III [1988, боевик, триллер, приключения, UHD BDRemux 2160p] 3xMVO + DVO + 4xAVO смотреть онлайн, скачать торрент picoco.icu