Достать ножи: Стеклянная луковица

MVO

Добыча

Дубляж

Уэнсдэй

1 сезон

Тор

Дубляж

13 клиническая

1 сезон

Жестокая ночь

MVO

Одни из нас

1 сезон

Deluxe

pack

Рекомендуем

30

Пиратка

ВАЖНО

ВАЖНО

Ghostwire

Пиратка

jed

RePack

nioh2

RePack

RDR2

RePack

NEED FOR SPEED™ PAYBACK

RePack

скачать торрент

Кинопоиск HD

Острые козырьки 6 сезон

6 сезон

FAR CRY 6

RePack

скачать торрент

Лицензия

скачать торрент

MVO

1

1 сезон

скачать торрент

1 сезон

скачать торрент

Лицензия

  

Скалолаз / Cliffhanger (Ренни Харлин) [1993, боевик, триллер, приключения, UHD BDRemux 2160p] 2xMVO + 3xDVO + 2xMVO + 4xAVO + VO

Скалолаз через торрент piratbit.org

Размер: 70.26 GB | Добавлен: 3 года 11 мес. назад | Торрент скачан:0 раз
Смотреть онлайн | Скачать | Поддержите нас   

14-11-2018 17:40 Скалолаз Скачать торрент  

Скалолаз / Cliffhanger«The height of adventure»
Год выпуска: 1993
Страна: Италия, Франция, США
Жанр: Боевик, триллер, приключения
Продолжительность: 01:52:37
Перевод: Профессиональный многоголосый, профессиональный двухголосый, авторский, любительский одноголосый
Субтитры: Русские (полные, два вида), Английские (Full, Full SDH)
Режиссер: Ренни Харлин
В ролях:

Сильвестр Сталлоне (Gabe Walker), Джон Литгоу (Qualen), Майкл Рукер (Hal Tucker), Джанин Тернер (Jessie Deighan), Рекс Линн (Richard Travers), Кэролайн Гудолл (Kristel), Леон (Kynette), Крэйг Фэйрбрасс (Delmar), Грегори Скотт Камминс (Ryan), Денис Форест (Heldon), Мишель Джойнер (Sarah), Макс Перлих (Evan)
Описание:
В горах после снежной лавины теряются 5 человек. На их поиски отправляется один из лучших альпинистов и горных проводников — Гейб Уокер. Неожиданно он понимает, что его специально заманили в горы для совершенно другого дела. Также становится ясно, что Гейб станет нежелательным свидетелем, от которого без раздумья «избавятся». Но свою жизнь он терять так просто не собирается и объявляет безжалостную войну банде вооруженных до зубов боевиков под предводительством международного террориста Эрика Куалена…
Рейтинг:

MPAA: R - Лицам до 17 лет обязательно присутствие взрослого
Качество: UHD BDRemux 2160p
Формат: MKV
Видео: HEVC HDR, 57.5 Мбит/с, 3840x2160, 23.976 Кадр/с, 10 бит
Аудио №1: Russian: 48 kHz/24-bit, DTS-HD MA 5.1, ~4382.00 kbps avg Двухголосый закадровый, R5 (Тwister)
Аудио №2: Russian: 48 kHz, AC3, 2/0 (L,R) ch, ~192 kbps avg Многоголосый закадровый, РТР
Аудио №3: Russian: 48 kHz, AC3, 2/0 (L,R) ch, ~192 kbps avg Многоголосый закадровый, ОРТ
Аудио №4: Russian: 48 kHz, AC3, 2/0 (L,R) ch, ~192 kbps avg Двухголосый закадровый, Премьер Видео Фильм
Аудио №5: Russian: 48 kHz, AC3, 2/0 (L,R) ch, ~192 kbps avg Двухголосый закадровый, СТС
Аудио №6: Russian: 48 kHz/24-bit, DTS-HD MA 5.1, ~4380.00 kbps avg Одноголосый закадровый, А. Гаврилов (NEW)
Аудио №7: Russian: 48 kHz/24-bit, DTS-HD MA 5.1, ~4376.00 kbps avg Одноголосый закадровый, А. Гаврилов (OLD)
Аудио №8: Russian: 48 kHz/24-bit, DTS-HD MA 5.1, ~4383.00 kbps avg Одноголосый закадровый, Ю. Живов
Аудио №9: Russian: 48 kHz/24-bit, DTS-HD MA 5.1, ~4375.00 kbps avg Одноголосый закадровый, В. Горчаков
Аудио №10: Russian: 48 kHz, AC3, 2/0 (L,R) ch, ~192 kbps avg Одноголосый закадровый, Л. Володарский
Аудио №11: Russian: 48 kHz, AC3, 2/0 (L,R) ch, ~192 kbps avg Одноголосый закадровый, неизвестный
Аудио №12: Ukrainian: 48 kHz, AC3, 2/0 (L,R) ch, ~192 kbps avg Двухголосый закадровый, 2+2
Аудио №13: English / Dolby TrueHD with Dolby Atmos / 7.1 / 48 kHz / 3726 kbps
Аудио №14: English / DTS-HD Master Audio / 7.1 / 48 kHz / 4020 kbps
Аудио №15: English / Dolby Digital Audio / 5.1 / 48 kHz / 640 kbps
Навигация по главам: есть

General
Unique ID : 122732722557807467098133296776794420245 (0x5C557669E003FA6B4307A3ED57B13415)
Complete name : X:\Releases\Cliffhanger.1993.US.BluRay.REMUX.HEVC.HDR.2160p.mkv
Format : Matroska
Format version : Version 4
File size : 70.3 GiB
Duration : 1 h 52 min
Overall bit rate mode : Variable
Overall bit rate : 89.2 Mb/s
Encoded date : UTC 2019-02-18 10:51:16
Writing application : mkvmerge v31.0.0 ('Dolores In A Shoestand') 64-bit
Writing library : libebml v1.3.6 + libmatroska v1.4.9
Attachments : poster.jpg

Video
ID : 1
Format : HEVC
Format/Info : High Efficiency Video Coding
Commercial name : HDR10
Format profile : Main 10@L5.1@High
Codec ID : V_MPEGH/ISO/HEVC
Duration : 1 h 52 min
Bit rate : 57.5 Mb/s
Width : 3 840 pixels
Height : 2 160 pixels
Display aspect ratio : 16:9
Frame rate mode : Constant
Frame rate : 23.976 (24000/1001) FPS
Color space : YUV
Chroma subsampling : 4:2:0 (Type 2)
Bit depth : 10 bits
Bits/(Pixel*Frame) : 0.289
Stream size : 45.3 GiB (64%)
Default : Yes
Forced : No
Color range : Limited
Color primaries : BT.2020
Transfer characteristics : PQ
Matrix coefficients : BT.2020 non-constant
Mastering display color pri : Display P3
Mastering display luminance : min: 0.0050 cd/m2, max: 4000 cd/m2
Maximum Content Light Level : 10000 cd/m2
Maximum Frame-Average Light : 1577 cd/m2

Audio #1
ID : 2
Format : DTS XLL
Format/Info : Digital Theater Systems
Commercial name : DTS-HD Master Audio
Codec ID : A_DTS
Duration : 1 h 52 min
Bit rate mode : Variable
Bit rate : 4 382 kb/s
Channel(s) : 6 channels
Channel layout : C L R Ls Rs LFE
Sampling rate : 48.0 kHz
Frame rate : 93.750 FPS (512 SPF)
Bit depth : 24 bits
Compression mode : Lossless
Delay relative to video : -5 ms
Stream size : 3.45 GiB (5%)
Title : Тwister
Language : Russian
Default : Yes
Forced : No

Audio #2
ID : 3
Format : AC-3
Format/Info : Audio Coding 3
Commercial name : Dolby Digital
Codec ID : A_AC3
Duration : 1 h 52 min
Bit rate mode : Constant
Bit rate : 192 kb/s
Channel(s) : 2 channels
Channel layout : L R
Sampling rate : 48.0 kHz
Frame rate : 31.250 FPS (1536 SPF)
Bit depth : 16 bits
Compression mode : Lossy
Delay relative to video : -26 ms
Stream size : 155 MiB (0%)
Title : РТР
Language : Russian
Service kind : Complete Main
Default : No
Forced : No

Audio #3
ID : 4
Format : AC-3
Format/Info : Audio Coding 3
Commercial name : Dolby Digital
Codec ID : A_AC3
Duration : 1 h 52 min
Bit rate mode : Constant
Bit rate : 192 kb/s
Channel(s) : 2 channels
Channel layout : L R
Sampling rate : 48.0 kHz
Frame rate : 31.250 FPS (1536 SPF)
Bit depth : 16 bits
Compression mode : Lossy
Delay relative to video : -26 ms
Stream size : 155 MiB (0%)
Title : ОРТ
Language : Russian
Service kind : Complete Main
Default : No
Forced : No

Audio #4
ID : 5
Format : AC-3
Format/Info : Audio Coding 3
Commercial name : Dolby Digital
Codec ID : A_AC3
Duration : 1 h 52 min
Bit rate mode : Constant
Bit rate : 192 kb/s
Channel(s) : 2 channels
Channel layout : L R
Sampling rate : 48.0 kHz
Frame rate : 31.250 FPS (1536 SPF)
Bit depth : 16 bits
Compression mode : Lossy
Delay relative to video : -26 ms
Stream size : 155 MiB (0%)
Title : Премьер Видео Фильм
Language : Russian
Service kind : Complete Main
Default : No
Forced : No

Audio #5
ID : 6
Format : AC-3
Format/Info : Audio Coding 3
Commercial name : Dolby Digital
Codec ID : A_AC3
Duration : 1 h 52 min
Bit rate mode : Constant
Bit rate : 192 kb/s
Channel(s) : 2 channels
Channel layout : L R
Sampling rate : 48.0 kHz
Frame rate : 31.250 FPS (1536 SPF)
Bit depth : 16 bits
Compression mode : Lossy
Delay relative to video : -26 ms
Stream size : 155 MiB (0%)
Title : СТС
Language : Russian
Service kind : Complete Main
Default : No
Forced : No

Audio #6
ID : 7
Format : DTS XLL
Format/Info : Digital Theater Systems
Commercial name : DTS-HD Master Audio
Codec ID : A_DTS
Duration : 1 h 52 min
Bit rate mode : Variable
Bit rate : 4 380 kb/s
Channel(s) : 6 channels
Channel layout : C L R Ls Rs LFE
Sampling rate : 48.0 kHz
Frame rate : 93.750 FPS (512 SPF)
Bit depth : 24 bits
Compression mode : Lossless
Delay relative to video : -5 ms
Stream size : 3.45 GiB (5%)
Title : А. Гаврилов (NEW)
Language : Russian
Default : No
Forced : No

Audio #7
ID : 8
Format : DTS XLL
Format/Info : Digital Theater Systems
Commercial name : DTS-HD Master Audio
Codec ID : A_DTS
Duration : 1 h 52 min
Bit rate mode : Variable
Bit rate : 4 376 kb/s
Channel(s) : 6 channels
Channel layout : C L R Ls Rs LFE
Sampling rate : 48.0 kHz
Frame rate : 93.750 FPS (512 SPF)
Bit depth : 24 bits
Compression mode : Lossless
Delay relative to video : -5 ms
Stream size : 3.45 GiB (5%)
Title : А. Гаврилов (OLD)
Language : Russian
Default : No
Forced : No

Audio #8
ID : 9
Format : DTS XLL
Format/Info : Digital Theater Systems
Commercial name : DTS-HD Master Audio
Codec ID : A_DTS
Duration : 1 h 52 min
Bit rate mode : Variable
Bit rate : 4 383 kb/s
Channel(s) : 6 channels
Channel layout : C L R Ls Rs LFE
Sampling rate : 48.0 kHz
Frame rate : 93.750 FPS (512 SPF)
Bit depth : 24 bits
Compression mode : Lossless
Delay relative to video : -5 ms
Stream size : 3.45 GiB (5%)
Title : Ю. Живов
Language : Russian
Default : No
Forced : No

Audio #9
ID : 10
Format : DTS XLL
Format/Info : Digital Theater Systems
Commercial name : DTS-HD Master Audio
Codec ID : A_DTS
Duration : 1 h 52 min
Bit rate mode : Variable
Bit rate : 4 375 kb/s
Channel(s) : 6 channels
Channel layout : C L R Ls Rs LFE
Sampling rate : 48.0 kHz
Frame rate : 93.750 FPS (512 SPF)
Bit depth : 24 bits
Compression mode : Lossless
Delay relative to video : -5 ms
Stream size : 3.44 GiB (5%)
Title : В. Горчаков
Language : Russian
Default : No
Forced : No

Audio #10
ID : 11
Format : AC-3
Format/Info : Audio Coding 3
Commercial name : Dolby Digital
Codec ID : A_AC3
Duration : 1 h 52 min
Bit rate mode : Constant
Bit rate : 192 kb/s
Channel(s) : 2 channels
Channel layout : L R
Sampling rate : 48.0 kHz
Frame rate : 31.250 FPS (1536 SPF)
Bit depth : 16 bits
Compression mode : Lossy
Delay relative to video : -26 ms
Stream size : 155 MiB (0%)
Title : Л. Володарский
Language : Russian
Service kind : Complete Main
Default : No
Forced : No

Audio #11
ID : 12
Format : AC-3
Format/Info : Audio Coding 3
Commercial name : Dolby Digital
Codec ID : A_AC3
Duration : 1 h 52 min
Bit rate mode : Constant
Bit rate : 192 kb/s
Channel(s) : 2 channels
Channel layout : L R
Sampling rate : 48.0 kHz
Frame rate : 31.250 FPS (1536 SPF)
Bit depth : 16 bits
Compression mode : Lossy
Delay relative to video : -26 ms
Stream size : 155 MiB (0%)
Title : Неизвестный
Language : Russian
Service kind : Complete Main
Default : No
Forced : No

Audio #12
ID : 13
Format : AC-3
Format/Info : Audio Coding 3
Commercial name : Dolby Digital
Codec ID : A_AC3
Duration : 1 h 52 min
Bit rate mode : Constant
Bit rate : 192 kb/s
Channel(s) : 2 channels
Channel layout : L R
Sampling rate : 48.0 kHz
Frame rate : 31.250 FPS (1536 SPF)
Bit depth : 16 bits
Compression mode : Lossy
Delay relative to video : -26 ms
Stream size : 155 MiB (0%)
Title : 2+2
Language : Ukrainian
Service kind : Complete Main
Default : No
Forced : No

Audio #13
ID : 14
Format : MLP FBA 16-ch
Format/Info : Meridian Lossless Packing FBA with 16-channel presentation
Commercial name : Dolby TrueHD with Dolby Atmos
Codec ID : A_TRUEHD
Duration : 1 h 52 min
Bit rate mode : Variable
Bit rate : 3 726 kb/s
Maximum bit rate : 6 378 kb/s
Channel(s) : 8 channels
Channel layout : L R C LFE Ls Rs Lb Rb
Sampling rate : 48.0 kHz
Frame rate : 1 200.000 FPS (40 SPF)
Compression mode : Lossless
Stream size : 2.93 GiB (4%)
Language : English
Default : No
Forced : No
Number of dynamic objects : 11
Bed channel count : 1 channel
Bed channel configuration : LFE

Audio #14
ID : 15
Format : DTS XLL
Format/Info : Digital Theater Systems
Commercial name : DTS-HD Master Audio
Codec ID : A_DTS
Duration : 1 h 52 min
Bit rate mode : Variable
Bit rate : 4 020 kb/s
Channel(s) : 8 channels
Channel layout : C L R LFE Lb Rb Lss Rss
Sampling rate : 48.0 kHz
Frame rate : 93.750 FPS (512 SPF)
Bit depth : 24 bits
Compression mode : Lossless
Delay relative to video : -26 ms
Stream size : 3.16 GiB (5%)
Language : English
Default : No
Forced : No

Audio #15
ID : 16
Format : AC-3
Format/Info : Audio Coding 3
Commercial name : Dolby Digital
Codec ID : A_AC3
Duration : 1 h 52 min
Bit rate mode : Constant
Bit rate : 640 kb/s
Channel(s) : 6 channels
Channel layout : L R C LFE Ls Rs
Sampling rate : 48.0 kHz
Frame rate : 31.250 FPS (1536 SPF)
Bit depth : 16 bits
Compression mode : Lossy
Stream size : 516 MiB (1%)
Language : English
Service kind : Complete Main
Default : No
Forced : No

Text #1
ID : 17
Format : UTF-8
Codec ID : S_TEXT/UTF8
Codec ID/Info : UTF-8 Plain Text
Duration : 1 h 43 min
Bit rate : 83 b/s
Count of elements : 1075
Stream size : 63.2 KiB (0%)
Title : Полные версия 1
Language : Russian
Default : No
Forced : No

Text #2
ID : 18
Format : UTF-8
Codec ID : S_TEXT/UTF8
Codec ID/Info : UTF-8 Plain Text
Duration : 1 h 43 min
Bit rate : 75 b/s
Count of elements : 960
Stream size : 57.6 KiB (0%)
Title : Полные версия 2
Language : Russian
Default : No
Forced : No

Text #3
ID : 19
Format : UTF-8
Codec ID : S_TEXT/UTF8
Codec ID/Info : UTF-8 Plain Text
Duration : 1 h 42 min
Bit rate : 50 b/s
Count of elements : 1114
Stream size : 37.6 KiB (0%)
Title : English-SRT
Language : English
Default : Yes
Forced : No

Text #4
ID : 20
Format : UTF-8
Codec ID : S_TEXT/UTF8
Codec ID/Info : UTF-8 Plain Text
Duration : 1 h 44 min
Bit rate : 51 b/s
Count of elements : 1211
Stream size : 39.0 KiB (0%)
Title : English-SDH-SRT
Language : English
Default : No
Forced : No

Menu
00:00:00.000 : :Chapter 1
00:06:06.657 : :Chapter 2
00:13:24.804 : :Chapter 3
00:22:48.700 : :Chapter 4
00:27:13.673 : :Chapter 5
00:34:28.441 : :Chapter 6
00:40:27.174 : :Chapter 7
00:49:08.195 : :Chapter 8
00:55:14.227 : :Chapter 9
01:03:36.020 : :Chapter 10
01:11:08.514 : :Chapter 11
01:18:28.161 : :Chapter 12
01:26:01.781 : :Chapter 13
01:32:18.157 : :Chapter 14
01:35:33.102 : :Chapter 15
01:41:54.483 : :Chapter 16



Скачать Скалолаз через торрент https://b.radikal.ru/b34/1811/da/5f514bbcf2c4.png Скачать, смотреть онлайн Скалолаз бесплантно в хорошем качестве Описание: В горах после снежной лавины теряются 5 человек. На их поиски отправляется один из лучших альпинистов и горных проводников — Гейб ... 9.6 10 8
Info! Золотая раздача, скачанное не засчитывается.
Торрент: Зарегистрирован [2019-02-18 12:40] · скачан: 0 раз
Статус: √ проверено
Размер: 70.26 GB
Как cкачать? Как скачать Скалолаз через торрент | UTorrent




Последний раз редактировалось: sheker187 (2019-02-18 13:22), всего редактировалось 2 раз(а)

28-11-2019 20:33  


Отключить вcю реклaмy на сайте, в т.ч. и в плеере онлайн просмотра!

18-02-2019 12:42 Скалолаз Скачать торрент  

Торрент обновлён!
Добавлены доп. озвучки



    Дорогой пользователь! Огромная просьба, поблагодарите релизера, оцените раздачу и оставьте свои комментарий, если Вы скачали Скалолаз через торрент бесплатно!!
    Комментировать посты могут только пользователи прошедшие не сложную регистрацию
    Показать сообщения:    


    Скалолаз через торрент
    Скачать бесплатно Скалолаз
    Скалолаз скачать торрент
    Скалолаз смотреть онлайн
    Cкачать фильм Скалолаз бесплатно
    Скалолаз скачать торрент в хорошем качестве
    Скалолаз смотреть онлайн бесплатно в хорошем качестве
    Вы не можете начинать темы
    Вы не можете отвечать на сообщения
    Вы не можете редактировать свои сообщения
    Вы не можете удалять свои сообщения
    Вы не можете голосовать в опросах
    Вы не можете прикреплять файлы к сообщениям
    Вы можете скачивать файлы
    Скалолаз / Cliffhanger [1993, боевик, триллер, приключения, UHD BDRemux 2160p] 2xMVO + 3xDVO + 2xMVO + 4xAVO + VO смотреть онлайн, скачать торрент picoco.icu