Достать ножи: Стеклянная луковица

MVO

Добыча

Дубляж

Уэнсдэй

1 сезон

Тор

Дубляж

13 клиническая

1 сезон

Жестокая ночь

MVO

Одни из нас

1 сезон

Deluxe

pack

Рекомендуем

30

Пиратка

ВАЖНО

ВАЖНО

Ghostwire

Пиратка

jed

RePack

nioh2

RePack

RDR2

RePack

NEED FOR SPEED™ PAYBACK

RePack

скачать торрент

Кинопоиск HD

Острые козырьки 6 сезон

6 сезон

FAR CRY 6

RePack

скачать торрент

Лицензия

скачать торрент

MVO

1

1 сезон

скачать торрент

1 сезон

скачать торрент

Лицензия

  

Прометей / Prometheus (Ридли Скотт) [2012, фантастика, детектив, приключения, UHD BDRip 2160p] Дубляж (rus, ukr) + MVO [Первый канал]

Прометей через торрент piratbit.org

Размер: 20.04 GB | Добавлен: 4 года 2 мес. назад | Торрент скачан:109 раз
Смотреть онлайн | Скачать | Поддержите нас   

17-11-2018 02:04 Прометей Скачать торрент  

Прометей / Prometheus«Они искали колыбель человечества, но нашли его погибель»
Год выпуска: 2012
Страна: США, Великобритания
Жанр: фантастика, детектив, приключения
Продолжительность: 02:03:46
Перевод: Дублированный, профессиональный многоголосый
Субтитры: Русские (Forced, Full), английские (SDH), испанские, французские, украинские (Forced, Full), датские, голландские, финские, немецкие, итальянские, японские, норвежские, шведские, китайские
Режиссер: Ридли Скотт
В ролях:

Нуми Рапас (Elizabeth Shaw), Майкл Фассбендер (David), Шарлиз Терон (Meredith Vickers), Идрис Эльба (Janek), Гай Пирс (Peter Weyland), Логан Маршалл-Грин (Charlie Holloway), Шон Харрис (Fifield), Рейф Сполл (Millburn), Иман Эллиотт (Chance), Бенедикт Вонг (Ravel), Кейт Дики (Ford), Брануэлл Донахи (Mercenary 1)
Описание:
В поисках сакрального знания группа ученых отправляется в самые темные и неизведанные чертоги вселенной. Именно там, в отдаленных мирах, находясь на пределе своих умственных и физических возможностей, им предстоит вступить в безжалостную схватку за будущее всего человечества.
Рейтинг:

MPAA: R - Лицам до 17 лет обязательно присутствие взрослого
Качество: UHD BDRip 2160p
Формат: MKV
Видео: HEVC, HDR, 23.2 Мбит/с, 3840x1600, 23.976 кадр/с
Аудио #1: Русский / DTS / 48 KHz / 5.1 ch / 768 Kbps |Дубляж, Blu-Ray CEE|
Аудио #2: Русский / AC3 / 48 KHz / 2 ch / 192 Kbps |Многоголосый закадровый, Первый канал|
Аудио #3: Украинский / AC3 / 48 KHz / 5.1 ch / 448 Kbps |Дубляж, Blu-Ray CEE|
Аудио #4: Английский / DTS-HD MA / 48 KHz / 7.1 ch / 4987 Kbps Original
Аудио #5: Английский / AAC / 48 KHz / 2 ch / 111 Kbps Commentary 1 with director/producer Ridley Scott
Аудио #6: Английский / AAC / 48 KHz / 2 ch / 107 Kbps Commentary 2 with writer Jon Spaihts and writer/executive producer Damon Lindelof
Навигация по главам: есть
Дорожки с Авторским переводом:
Скачать

Complete name : G:\Prometheus.2012.2160p.UHD.BluRay.x265-SpaceHD13.mkv
Format : Matroska
Format version : Version 4 / Version 2
File size : 20.0 GiB
Duration : 2 h 3 min
Overall bit rate : 23.2 Mb/s
Movie name : Prometheus.2012.2160p.UHD.BluRay.x265-SpaceHD13
Encoded date : UTC 2018-03-25 13:20:48
Writing application : mkvmerge v20.0.0 ('I Am The Sun') 64-bit
Writing library : libebml v1.3.5 + libmatroska v1.4.8
Cover : Yes
Attachments : cover.jpg.jpg

Video
ID : 1
Format : HEVC
Format/Info : High Efficiency Video Coding
Format profile : Main 10@L5.1@High
Codec ID : V_MPEGH/ISO/HEVC
Duration : 2 h 3 min
Bit rate : 16.0 Mb/s
Width : 3 840 pixels
Height : 1 600 pixels
Display aspect ratio : 2.40:1
Frame rate mode : Constant
Frame rate : 23.976 (24000/1001) FPS
Color space : YUV
Chroma subsampling : 4:2:0 (Type 2)
Bit depth : 10 bits
Bits/(Pixel*Frame) : 0.109
Stream size : 13.9 GiB (69%)
Title : Prometheus.2012.2160p.UHD.BluRay.x265-SpaceHD13
Writing library : x265 2.5+27-0e168bdeb48b:[Windows][GCC 6.2.1][64 bit] 10bit
Encoding settings : cpuid=1050111 / frame-threads=4 / numa-pools=15,15 / wpp / no-pmode / no-pme / no-psnr / no-ssim / log-level=2 / input-csp=1 / input-res=3840x1600 / interlace=0 / total-frames=178065 / level-idc=51 / high-tier=1 / uhd-bd=0 / ref=4 / no-allow-non-conformance / repeat-headers / annexb / aud / hrd / info / hash=0 / no-temporal-layers / no-open-gop / min-keyint=1 / keyint=24 / bframes=4 / b-adapt=2 / b-pyramid / bframe-bias=0 / rc-lookahead=25 / lookahead-slices=4 / scenecut=40 / no-intra-refresh / ctu=64 / min-cu-size=8 / rect / no-amp / max-tu-size=32 / tu-inter-depth=1 / tu-intra-depth=1 / limit-tu=0 / rdoq-level=2 / dynamic-rd=0.00 / no-ssim-rd / signhide / no-tskip / nr-intra=0 / nr-inter=0 / no-constrained-intra / no-strong-intra-smoothing / max-merge=3 / limit-refs=3 / limit-modes / me=3 / subme=3 / merange=57 / temporal-mvp / weightp / no-weightb / no-analyze-src-pics / deblock=-3:-3 / no-sao / no-sao-non-deblock / rd=4 / no-early-skip / rskip / no-fast-intra / no-tskip-fast / no-cu-lossless / no-b-intra / no-splitrd-skip / rdpenalty=0 / psy-rd=2.00 / psy-rdoq=1.00 / no-rd-refine / analysis-reuse-mode=0 / no-lossless / cbqpoffs=0 / crqpoffs=0 / rc=crf / crf=17.0 / qcomp=0.60 / qpstep=4 / stats-write=0 / stats-read=0 / vbv-maxrate=160000 / vbv-bufsize=160000 / vbv-init=0.9 / crf-max=0.0 / crf-min=0.0 / ipratio=1.40 / pbratio=1.30 / aq-mode=1 / aq-strength=1.00 / cutree / zone-count=0 / no-strict-cbr / qg-size=32 / no-rc-grain / qpmax=69 / qpmin=0 / no-const-vbv / sar=1 / overscan=0 / videoformat=5 / range=0 / colorprim=9 / transfer=16 / colormatrix=9 / chromaloc=1 / chromaloc-top=2 / chromaloc-bottom=2 / display-window=0 / master-display=G(13250,34500)B(7500,3000)R(34000,16000)WP(15635,16450)L(10000000,50) / max-cll=0,0 / min-luma=0 / max-luma=1023 / log2-max-poc-lsb=8 / vui-timing-info / vui-hrd-info / slices=1 / opt-qp-pps / opt-ref-list-length-pps / no-multi-pass-opt-rps / scenecut-bias=0.05 / no-opt-cu-delta-qp / no-aq-motion / hdr / hdr-opt / no-dhdr10-opt / analysis-reuse-level=5 / scale-factor=0 / refine-intra=0 / refine-inter=0 / refine-mv=0 / no-limit-sao / ctu-info=0
Default : Yes
Forced : No
Color range : Limited
Color primaries : BT.2020
Transfer characteristics : PQ
Matrix coefficients : BT.2020 non-constant
Mastering display color primaries : Display P3
Mastering display luminance : min: 0.0050 cd/m2, max: 1000 cd/m2

Audio #1
ID : 2
Format : DTS
Format/Info : Digital Theater Systems
Codec ID : A_DTS
Duration : 2 h 3 min
Bit rate mode : Constant
Bit rate : 768 kb/s
Channel(s) : 6 channels
Channel positions : Front: L C R, Side: L R, LFE
Sampling rate : 48.0 kHz
Frame rate : 93.750 FPS (512 SPF)
Bit depth : 24 bits
Compression mode : Lossy
Stream size : 680 MiB (3%)
Title : Prometheus.2012.2160p.UHD.BluRay.x265-SpaceHD13.Дубляж
Language : Russian
Default : Yes
Forced : No

Audio #2
ID : 3
Format : AC-3
Format/Info : Audio Coding 3
Codec ID : A_AC3
Duration : 2 h 3 min
Bit rate mode : Constant
Bit rate : 192 kb/s
Channel(s) : 2 channels
Channel positions : Front: L R
Sampling rate : 48.0 kHz
Frame rate : 31.250 FPS (1536 SPF)
Bit depth : 16 bits
Compression mode : Lossy
Stream size : 170 MiB (1%)
Title : Prometheus.2012.2160p.UHD.BluRay.x265-SpaceHD13.ПМ(1 Канал)
Language : Russian
Service kind : Complete Main
Default : No
Forced : No

Audio #3
ID : 4
Format : AC-3
Format/Info : Audio Coding 3
Codec ID : A_AC3
Duration : 2 h 3 min
Bit rate mode : Constant
Bit rate : 448 kb/s
Channel(s) : 6 channels
Channel positions : Front: L C R, Side: L R, LFE
Sampling rate : 48.0 kHz
Frame rate : 31.250 FPS (1536 SPF)
Bit depth : 16 bits
Compression mode : Lossy
Stream size : 397 MiB (2%)
Title : Prometheus.2012.2160p.UHD.BluRay.x265-SpaceHD13.Дубляж
Language : Ukrainian
Service kind : Complete Main
Default : No
Forced : No

Audio #4
ID : 5
Format : DTS
Format/Info : Digital Theater Systems
Format profile : MA / Core
Codec ID : A_DTS
Duration : 2 h 3 min
Bit rate mode : Variable / Constant
Bit rate : 4 987 kb/s / 1 509 kb/s
Channel(s) : 8 channels / 6 channels
Channel positions : Front: L C R, Side: L R, Back: L R, LFE / Front: L C R, Side: L R, LFE
Sampling rate : 48.0 kHz
Frame rate : 93.750 FPS (512 SPF)
Bit depth : 24 bits
Compression mode : Lossless / Lossy
Stream size : 4.31 GiB (22%)
Title : Prometheus.2012.2160p.UHD.BluRay.x265-SpaceHD13
Language : English
Default : No
Forced : No

Audio #5
ID : 6
Format : AAC
Format/Info : Advanced Audio Codec
Format profile : LC
Codec ID : A_AAC-2
Duration : 2 h 3 min
Bit rate : 111 kb/s
Channel(s) : 2 channels
Channel positions : Front: L R
Sampling rate : 48.0 kHz
Frame rate : 46.875 FPS (1024 SPF)
Compression mode : Lossy
Delay relative to video : 9 ms
Stream size : 97.8 MiB (0%)
Title : Commentary 1 with director/producer Ridley Scott
Language : English
Default : No
Forced : No

Audio #6
ID : 7
Format : AAC
Format/Info : Advanced Audio Codec
Format profile : LC
Codec ID : A_AAC-2
Duration : 2 h 3 min
Bit rate : 107 kb/s
Channel(s) : 2 channels
Channel positions : Front: L R
Sampling rate : 48.0 kHz
Frame rate : 46.875 FPS (1024 SPF)
Compression mode : Lossy
Delay relative to video : 9 ms
Stream size : 95.1 MiB (0%)
Title : Commentary 2 with writer Jon Spaihts and writer/executive producer Damon Lindelof
Language : English
Default : No
Forced : No

Text #1
ID : 8
Format : PGS
Muxing mode : zlib
Codec ID : S_HDMV/PGS
Codec ID/Info : Picture based subtitle format used on BDs/HD-DVDs
Duration : 4 min 26 s
Bit rate : 11.3 kb/s
Count of elements : 20
Stream size : 366 KiB (0%)
Title : Forced
Language : Russian
Default : Yes
Forced : No

Text #2
ID : 9
Format : PGS
Muxing mode : zlib
Codec ID : S_HDMV/PGS
Codec ID/Info : Picture based subtitle format used on BDs/HD-DVDs
Duration : 1 h 51 min
Bit rate : 40.3 kb/s
Count of elements : 2728
Stream size : 32.3 MiB (0%)
Language : Russian
Default : No
Forced : No

Text #3
ID : 10
Format : PGS
Muxing mode : zlib
Codec ID : S_HDMV/PGS
Codec ID/Info : Picture based subtitle format used on BDs/HD-DVDs
Duration : 1 h 56 min
Bit rate : 34.8 kb/s
Count of elements : 2016
Stream size : 29.1 MiB (0%)
Title : 107miller
Language : Russian
Default : No
Forced : No

Text #4
ID : 11
Format : PGS
Muxing mode : zlib
Codec ID : S_HDMV/PGS
Codec ID/Info : Picture based subtitle format used on BDs/HD-DVDs
Duration : 1 h 53 min
Bit rate : 36.6 kb/s
Count of elements : 2160
Stream size : 29.6 MiB (0%)
Title : Stevvie
Language : Russian
Default : No
Forced : No

Text #5
ID : 12
Format : PGS
Muxing mode : zlib
Codec ID : S_HDMV/PGS
Codec ID/Info : Picture based subtitle format used on BDs/HD-DVDs
Duration : 1 h 53 min
Bit rate : 35.6 kb/s
Count of elements : 1988
Stream size : 28.8 MiB (0%)
Title : voronine
Language : Russian
Default : No
Forced : No

Text #6
ID : 13
Format : PGS
Muxing mode : zlib
Codec ID : S_HDMV/PGS
Codec ID/Info : Picture based subtitle format used on BDs/HD-DVDs
Duration : 4 min 26 s
Bit rate : 10.9 kb/s
Count of elements : 20
Stream size : 355 KiB (0%)
Title : Forced
Language : Ukrainian
Default : No
Forced : No

Text #7
ID : 14
Format : PGS
Muxing mode : zlib
Codec ID : S_HDMV/PGS
Codec ID/Info : Picture based subtitle format used on BDs/HD-DVDs
Duration : 1 h 51 min
Bit rate : 40.7 kb/s
Count of elements : 2700
Stream size : 32.4 MiB (0%)
Language : Ukrainian
Default : No
Forced : No

Text #8
ID : 15
Format : PGS
Muxing mode : zlib
Codec ID : S_HDMV/PGS
Codec ID/Info : Picture based subtitle format used on BDs/HD-DVDs
Duration : 1 h 59 min
Bit rate : 28.6 kb/s
Count of elements : 3206
Stream size : 24.5 MiB (0%)
Title : SDH
Language : English
Default : No
Forced : No

Text #9
ID : 16
Format : PGS
Muxing mode : zlib
Codec ID : S_HDMV/PGS
Codec ID/Info : Picture based subtitle format used on BDs/HD-DVDs
Duration : 1 h 58 min
Bit rate : 24.3 kb/s
Count of elements : 2874
Stream size : 20.7 MiB (0%)
Language : Spanish
Default : No
Forced : No

Text #10
ID : 17
Format : PGS
Muxing mode : zlib
Codec ID : S_HDMV/PGS
Codec ID/Info : Picture based subtitle format used on BDs/HD-DVDs
Duration : 1 h 58 min
Bit rate : 19.1 kb/s
Count of elements : 2418
Stream size : 16.2 MiB (0%)
Language : French
Default : No
Forced : No

Text #11
ID : 18
Format : PGS
Muxing mode : zlib
Codec ID : S_HDMV/PGS
Codec ID/Info : Picture based subtitle format used on BDs/HD-DVDs
Duration : 1 h 58 min
Bit rate : 23.7 kb/s
Count of elements : 2818
Stream size : 20.0 MiB (0%)
Language : Spanish
Default : No
Forced : No

Text #12
ID : 19
Format : PGS
Muxing mode : zlib
Codec ID : S_HDMV/PGS
Codec ID/Info : Picture based subtitle format used on BDs/HD-DVDs
Duration : 1 h 58 min
Bit rate : 22.8 kb/s
Count of elements : 2318
Stream size : 19.3 MiB (0%)
Language : Danish
Default : No
Forced : No

Text #13
ID : 20
Format : PGS
Muxing mode : zlib
Codec ID : S_HDMV/PGS
Codec ID/Info : Picture based subtitle format used on BDs/HD-DVDs
Duration : 1 h 58 min
Bit rate : 20.5 kb/s
Count of elements : 1936
Stream size : 17.4 MiB (0%)
Language : Dutch
Default : No
Forced : No

Text #14
ID : 21
Format : PGS
Muxing mode : zlib
Codec ID : S_HDMV/PGS
Codec ID/Info : Picture based subtitle format used on BDs/HD-DVDs
Duration : 1 h 58 min
Bit rate : 20.7 kb/s
Count of elements : 2078
Stream size : 17.5 MiB (0%)
Language : Finnish
Default : No
Forced : No

Text #15
ID : 22
Format : PGS
Muxing mode : zlib
Codec ID : S_HDMV/PGS
Codec ID/Info : Picture based subtitle format used on BDs/HD-DVDs
Duration : 1 h 58 min
Bit rate : 23.1 kb/s
Count of elements : 2586
Stream size : 19.5 MiB (0%)
Language : German
Default : No
Forced : No

Text #16
ID : 23
Format : PGS
Muxing mode : zlib
Codec ID : S_HDMV/PGS
Codec ID/Info : Picture based subtitle format used on BDs/HD-DVDs
Duration : 1 h 58 min
Bit rate : 21.7 kb/s
Count of elements : 2238
Stream size : 18.3 MiB (0%)
Language : Italian
Default : No
Forced : No

Text #17
ID : 24
Format : PGS
Muxing mode : zlib
Codec ID : S_HDMV/PGS
Codec ID/Info : Picture based subtitle format used on BDs/HD-DVDs
Duration : 1 h 58 min
Bit rate : 16.7 kb/s
Count of elements : 2252
Stream size : 14.1 MiB (0%)
Language : Japanese
Default : No
Forced : No

Text #18
ID : 25
Format : PGS
Muxing mode : zlib
Codec ID : S_HDMV/PGS
Codec ID/Info : Picture based subtitle format used on BDs/HD-DVDs
Duration : 1 h 58 min
Bit rate : 20.5 kb/s
Count of elements : 2612
Stream size : 17.3 MiB (0%)
Language : Norwegian
Default : No
Forced : No

Text #19
ID : 26
Format : PGS
Muxing mode : zlib
Codec ID : S_HDMV/PGS
Codec ID/Info : Picture based subtitle format used on BDs/HD-DVDs
Duration : 1 h 58 min
Bit rate : 21.3 kb/s
Count of elements : 1840
Stream size : 18.0 MiB (0%)
Language : Swedish
Default : No
Forced : No

Text #20
ID : 27
Format : PGS
Muxing mode : zlib
Codec ID : S_HDMV/PGS
Codec ID/Info : Picture based subtitle format used on BDs/HD-DVDs
Duration : 1 h 58 min
Bit rate : 20.5 kb/s
Count of elements : 2866
Stream size : 17.4 MiB (0%)
Language : Chinese
Default : No
Forced : No

Text #21
ID : 28
Format : PGS
Muxing mode : zlib
Codec ID : S_HDMV/PGS
Codec ID/Info : Picture based subtitle format used on BDs/HD-DVDs
Duration : 1 h 58 min
Bit rate : 21.9 kb/s
Count of elements : 2664
Stream size : 18.5 MiB (0%)
Language : Chinese
Default : No
Forced : No

Text #22
ID : 29
Format : PGS
Muxing mode : zlib
Codec ID : S_HDMV/PGS
Codec ID/Info : Picture based subtitle format used on BDs/HD-DVDs
Duration : 2 h 3 min
Bit rate : 58.0 kb/s
Count of elements : 3896
Stream size : 51.2 MiB (0%)
Title : Commentary 1
Language : English
Default : No
Forced : No

Text #23
ID : 30
Format : PGS
Muxing mode : zlib
Codec ID : S_HDMV/PGS
Codec ID/Info : Picture based subtitle format used on BDs/HD-DVDs
Duration : 2 h 3 min
Bit rate : 51.4 kb/s
Count of elements : 3756
Stream size : 45.4 MiB (0%)
Title : Commentary 1
Language : French
Default : No
Forced : No

Text #24
ID : 31
Format : PGS
Muxing mode : zlib
Codec ID : S_HDMV/PGS
Codec ID/Info : Picture based subtitle format used on BDs/HD-DVDs
Duration : 2 h 3 min
Bit rate : 48.9 kb/s
Count of elements : 3788
Stream size : 43.2 MiB (0%)
Title : Commentary 1
Language : Spanish
Default : No
Forced : No

Text #25
ID : 32
Format : PGS
Muxing mode : zlib
Codec ID : S_HDMV/PGS
Codec ID/Info : Picture based subtitle format used on BDs/HD-DVDs
Duration : 2 h 3 min
Bit rate : 48.5 kb/s
Count of elements : 3482
Stream size : 42.9 MiB (0%)
Title : Commentary 1
Language : Dutch
Default : No
Forced : No

Text #26
ID : 33
Format : PGS
Muxing mode : zlib
Codec ID : S_HDMV/PGS
Codec ID/Info : Picture based subtitle format used on BDs/HD-DVDs
Duration : 2 h 3 min
Bit rate : 49.8 kb/s
Count of elements : 3770
Stream size : 44.0 MiB (0%)
Title : Commentary 1
Language : German
Default : No
Forced : No

Text #27
ID : 34
Format : PGS
Muxing mode : zlib
Codec ID : S_HDMV/PGS
Codec ID/Info : Picture based subtitle format used on BDs/HD-DVDs
Duration : 2 h 3 min
Bit rate : 53.1 kb/s
Count of elements : 3738
Stream size : 46.9 MiB (0%)
Title : Commentary 1
Language : Italian
Default : No
Forced : No

Text #28
ID : 35
Format : PGS
Muxing mode : zlib
Codec ID : S_HDMV/PGS
Codec ID/Info : Picture based subtitle format used on BDs/HD-DVDs
Duration : 2 h 3 min
Bit rate : 33.0 kb/s
Count of elements : 2512
Stream size : 29.1 MiB (0%)
Title : Commentary 1
Language : Japanese
Default : No
Forced : No

Text #29
ID : 36
Format : UTF-8
Codec ID : S_TEXT/UTF8
Codec ID/Info : UTF-8 Plain Text
Duration : 2 h 3 min
Bit rate : 170 b/s
Count of elements : 2055
Stream size : 154 KiB (0%)
Title : Commentary 1 authorss
Language : Russian
Default : No
Forced : No

Text #30
ID : 37
Format : UTF-8
Codec ID : S_TEXT/UTF8
Codec ID/Info : UTF-8 Plain Text
Duration : 2 h 3 min
Bit rate : 140 b/s
Count of elements : 1894
Stream size : 127 KiB (0%)
Title : Commentary 2 directors
Language : Russian
Default : No
Forced : No

Text #31
ID : 38
Format : PGS
Muxing mode : zlib
Codec ID : S_HDMV/PGS
Codec ID/Info : Picture based subtitle format used on BDs/HD-DVDs
Duration : 2 h 3 min
Bit rate : 71.4 kb/s
Count of elements : 4118
Stream size : 63.1 MiB (0%)
Title : Commentary 2
Language : English
Default : No
Forced : No

Text #32
ID : 39
Format : PGS
Muxing mode : zlib
Codec ID : S_HDMV/PGS
Codec ID/Info : Picture based subtitle format used on BDs/HD-DVDs
Duration : 2 h 3 min
Bit rate : 67.8 kb/s
Count of elements : 4100
Stream size : 60.0 MiB (0%)
Title : Commentary 2
Language : French
Default : No
Forced : No

Text #33
ID : 40
Format : PGS
Muxing mode : zlib
Codec ID : S_HDMV/PGS
Codec ID/Info : Picture based subtitle format used on BDs/HD-DVDs
Duration : 2 h 3 min
Bit rate : 64.5 kb/s
Count of elements : 4108
Stream size : 57.1 MiB (0%)
Title : Commentary 2
Language : Spanish
Default : No
Forced : No

Text #34
ID : 41
Format : PGS
Muxing mode : zlib
Codec ID : S_HDMV/PGS
Codec ID/Info : Picture based subtitle format used on BDs/HD-DVDs
Duration : 2 h 3 min
Bit rate : 57.6 kb/s
Count of elements : 4044
Stream size : 50.9 MiB (0%)
Title : Commentary 2
Language : Dutch
Default : No
Forced : No

Text #35
ID : 42
Format : PGS
Muxing mode : zlib
Codec ID : S_HDMV/PGS
Codec ID/Info : Picture based subtitle format used on BDs/HD-DVDs
Duration : 2 h 3 min
Bit rate : 66.7 kb/s
Count of elements : 4114
Stream size : 59.0 MiB (0%)
Title : Commentary 2
Language : German
Default : No
Forced : No

Text #36
ID : 43
Format : PGS
Muxing mode : zlib
Codec ID : S_HDMV/PGS
Codec ID/Info : Picture based subtitle format used on BDs/HD-DVDs
Duration : 2 h 3 min
Bit rate : 56.1 kb/s
Count of elements : 4089
Stream size : 49.6 MiB (0%)
Title : Commentary 2
Language : Italian
Default : No
Forced : No

Text #37
ID : 44
Format : PGS
Muxing mode : zlib
Codec ID : S_HDMV/PGS
Codec ID/Info : Picture based subtitle format used on BDs/HD-DVDs
Duration : 2 h 3 min
Bit rate : 42.7 kb/s
Count of elements : 3052
Stream size : 37.7 MiB (0%)
Title : Commentary 2
Language : Japanese
Default : No
Forced : No

Menu
00:00:00.000 : en:00:00:00.000
00:05:13.146 : en:00:05:13.146
00:07:44.881 : en:00:07:44.881
00:11:31.524 : en:00:11:31.524
00:15:09.784 : en:00:15:09.784
00:20:04.912 : en:00:20:04.912
00:22:32.810 : en:00:22:32.810
00:27:43.120 : en:00:27:43.120
00:31:57.833 : en:00:31:57.833
00:34:10.840 : en:00:34:10.840
00:37:53.229 : en:00:37:53.229
00:40:45.360 : en:00:40:45.360
00:45:49.330 : en:00:45:49.330
00:48:47.925 : en:00:48:47.925
00:50:23.062 : en:00:50:23.062
00:53:56.400 : en:00:53:56.400
00:56:32.222 : en:00:56:32.222
00:59:31.610 : en:00:59:31.610
01:01:29.185 : en:01:01:29.185
01:04:17.562 : en:01:04:17.562
01:06:01.457 : en:01:06:01.457
01:08:57.884 : en:01:08:57.884
01:11:13.519 : en:01:11:13.519
01:15:10.631 : en:01:15:10.631
01:17:06.038 : en:01:17:06.038
01:25:02.306 : en:01:25:02.306
01:27:09.349 : en:01:27:09.349
01:30:10.363 : en:01:30:10.363
01:32:43.725 : en:01:32:43.725
01:35:23.134 : en:01:35:23.134
01:37:46.861 : en:01:37:46.861
01:40:46.374 : en:01:40:46.374
01:43:46.220 : en:01:43:46.220
01:48:28.794 : en:01:48:28.794
01:52:08.096 : en:01:52:08.096
01:58:06.288 : en:01:58:06.288



Скачать Прометей через торрент https://a.radikal.ru/a38/1811/cf/72e1f117802b.png Скачать, смотреть онлайн Прометей бесплантно в хорошем качестве Описание: В поисках сакрального знания группа ученых отправляется в самые темные и неизведанные чертоги вселенной. Именно там, в отдаленных ... 10 10 6
Торрент: Зарегистрирован [2018-11-17 02:04] · скачан: 109 раз
Статус: √ проверено
Размер: 20.04 GB
Как cкачать? Как скачать Прометей через торрент | UTorrent

% Раздел Тема Автор DL S | L
Фильмы 2012 [ 15.43 GB ] Прометей / Prometheus | DUB + MVO + 4xAVO | HDTVRip 1080p sheker187 Скачать
1 | 0
Фильмы 2012 [ 4.07 GB ] Прометей / Prometheus | MVO | HDTVRip-AVC, Dub, MVO, 3 x AVO morfyi Скачать
1 | 0

28-11-2019 20:33  


Отключить вcю реклaмy на сайте, в т.ч. и в плеере онлайн просмотра!

    Дорогой пользователь! Огромная просьба, поблагодарите релизера, оцените раздачу и оставьте свои комментарий, если Вы скачали Прометей через торрент бесплатно!!
    Комментировать посты могут только пользователи прошедшие не сложную регистрацию
    Показать сообщения:    


    Прометей через торрент
    Скачать бесплатно Прометей
    Прометей скачать торрент
    Прометей смотреть онлайн
    Cкачать фильм Прометей бесплатно
    Прометей скачать торрент в хорошем качестве
    Прометей смотреть онлайн бесплатно в хорошем качестве
    Вы не можете начинать темы
    Вы не можете отвечать на сообщения
    Вы не можете редактировать свои сообщения
    Вы не можете удалять свои сообщения
    Вы не можете голосовать в опросах
    Вы не можете прикреплять файлы к сообщениям
    Вы можете скачивать файлы
    Прометей / Prometheus [2012, фантастика, детектив, приключения, UHD BDRip 2160p] Дубляж + MVO [Первый канал] смотреть онлайн, скачать торрент picoco.icu