Ссылка на приватное зеркало всего за 1$. Внимание количество ограничено!!!

iTunes

iTunes

iTunes

1

iTunes

iTunes

iTunes

iTunes

iTunes

30
pack

Новость дня

ВАЖНО

!!Акция!!

Alien_RageХит недели

RePack

Resident Evil 21

ИГРА 18+

pack

RePack

jed

!!Акция!!

Alien_Rage

RePack

fifa19

RePack

Assassins Creed: Odyssey

RePack

NEED FOR SPEED™ PAYBACK

4 сезон

9 сезон

Бесстыжие 9 сезон

Все сериалы

все сериалы на PB.wtf

RePack

FAR CRY 5
  

Рэй Донован / Ray Donovan / Сезон: 6 / Серии 1-12 из 12 (Майкл Аппендаль / Michael Uppendahl, Дэниэл Эттиэс / Daniel Attias, Джон Дал / John Dahl) [2018, США, драма, криминал, WEB-DLRip] MVO [NewStudio] piratbit.org

Рэй Донован через торрент piratbit.org

Размер: 7.8 GB | Добавлен: 1 год 2 мес. назад | Торрент скачан:158 раз
Скачать  

17-11-2018 05:45 Рэй Донован Скачать торрент  


Рэй Донован / Ray Donovan

«Никто не должен знать...»


  • Год выпуска: 2018
  • Страна: США
  • Жанр: драма, криминал
  • Продолжительность: ~ 00:55:00 (Серия)
  • Перевод: Профессиональный многоголосый
  • В ролях:

    Лив Шрайбер (Ray Donovan), Паула Малкомсон (Abby Donovan), Эдди Марсан (Terry Donovan), Дэш Майок (Bunchy Donovan), Джон Войт (Mickey Donovan), Стивен Бауэр (Avi), Кэтрин Менниг (Lena), Пуч Холл (Daryll), Кэррис Дорси (Bridget Donovan), Девон Бэгби (Conor Donovan), Эллиотт Гулд (Ezra Goodman), Майкл МакГрэйди (Frank Barnes)


  • Рэй Донован - первоклассный специалист по устранению проблем любой сложности. Его клиенты - самые знаменитые и влиятельные люди Лос-Анджелеса, для которых он исполняет практически любые задания. Единственные проблемы, которые Рэю не под силу уладить, возникают в его собственной семье в Южном Бостоне. Одна из них - освобожденный из тюрьмы папаша-гангстер, угрожающий благополучию семейства. Помимо этого, один из братьев Рэя никак не может прийти в себя после совершенного над ним насилия, а второй страдает от болезни Паркинсона. Рэю Доновану предстоит не только помочь близким, но и защитить собственную жену и детей от своего коварного отца, который жаждет вновь занять позицию главы семьи.
  • Рейтинг:

    rating

  • Качество: WEB-DLRip
  • Формат: :AVI
  • Видео кодек: XviD
  • Аудио кодек: MP3
  • Видео: 1477 Кбит/сек, 720*400 (16:9), в 23,976 (24000/1001) кадра/сек, MPEG-4 Visual (XviD)
  • Аудио №1: Русский 128 Кбит/сек, 48,0 КГц, 2 канала, MPEG Audio (MP3)
  • Аудио №2: Английский 128 Кбит/сек, 48,0 КГц, 2 канала, MPEG Audio (MP3)

    Внимание! Раздача ведётся путём добавления новых серий; при каждом добавлении создаётся новый торрент. Чтобы начать докачку новой серии, пользователям необходимо сделать следующее:
    (1) остановить скачивание,
    (2) удалить старый торрент у себя из клиента (старые серии удалять не надо),
    (3) скачать новый торрент и запустить его у себя в клиенте вместо старого, при этом указать клиенту путь в старую папку куда и должно происходить скачивание новых серий.
    Ваш клиент при этом должен произвести хеширование (проверку) старой папки (если не производит сам - помогите ему сделать это), и будет докачивать только те серии которых у вас ещё нет. Старые серии при этом не удаляются, а продолжают раздаваться!
    Eсли вы уже удалили старые серии, то предотвратить повторную закачку старых серий можно, отжав галочку в соответствующих местах при запуске нового торрента. По возможности, желательно не удалять старые серии как можно дольше чтобы релизёр не столько продолжал раздавать старые серии, а смог сконцентрироваться на новых.
    Общее
    Полное имя : F:\Рэй Донован (сезон 6) Ray Donovan (2018) WEB-DLRip - NewStudio\Ray.Donovan.S06E03.WEB-DLRip.Rus.Eng.DV.NewStudio.avi
    Формат : AVI
    Формат/Информация : Audio Video Interleave
    Размер файла : 651 Мбайт
    Продолжительность : 52 м. 4 с.
    Общий поток : 1747 Кбит/сек
    Название фильма : Ray.Donovan.S06E03.WEB-DLRip.Rus.Eng.DV.NewStudio / NNM-Club
    Программа кодирования : VirtualDubModRus 1.5.10.2 (build 2542/release)
    Библиотека кодирования : VirtualDubMod build 2542/release

    Видео
    Идентификатор : 0
    Формат : MPEG-4 Visual
    Профиль формата : Advanced Simple@L5
    Настройки формата : BVOP2
    Параметр BVOP формата : 2
    Параметр QPel формата : Нет
    Параметр GMC формата : Без точки перехода
    Параметр матрицы формата : Default (H.263)
    Идентификатор кодека : XVID
    Идентификатор кодека/Подсказка : XviD
    Продолжительность : 52 м. 4 с.
    Битрейт : 1477 Кбит/сек
    Ширина : 720 пикселей
    Высота : 400 пикселей
    Соотношение сторон : 16:9
    Частота кадров : 23,976 (24000/1001) кадра/сек
    Цветовое пространство : YUV
    Субдискретизация насыщенности : 4:2:0
    Битовая глубина : 8 бит
    Тип развёртки : Прогрессивная
    Метод сжатия : С потерями
    Бит/(Пиксели*Кадры) : 0.214
    Размер потока : 550 Мбайт (85%)
    Заголовок : Rip by DriverV / NNM-Club
    Библиотека кодирования : XviD 67

    Аудио #1
    Идентификатор : 1
    Формат : MPEG Audio
    Версия формата : Version 1
    Профиль формата : Layer 3
    Настройки формата : Joint stereo
    Идентификатор кодека : 55
    Идентификатор кодека/Подсказка : MP3
    Продолжительность : 52 м. 4 с.
    Вид битрейта : Постоянный
    Битрейт : 128 Кбит/сек
    Каналы : 2 канала
    Частота : 48,0 КГц
    Метод сжатия : С потерями
    Размер потока : 47,7 Мбайт (7%)
    Выравнивание : Соединение по промежуткам
    Продолжительность промежутка : 42 мс. (1,00 видеокадр)
    Время предзагрузки промежутка : 504 мс.

    Аудио #2
    Идентификатор : 2
    Формат : MPEG Audio
    Версия формата : Version 1
    Профиль формата : Layer 3
    Настройки формата : Joint stereo
    Идентификатор кодека : 55
    Идентификатор кодека/Подсказка : MP3
    Продолжительность : 52 м. 4 с.
    Вид битрейта : Постоянный
    Битрейт : 128 Кбит/сек
    Каналы : 2 канала
    Частота : 48,0 КГц
    Метод сжатия : С потерями
    Размер потока : 47,7 Мбайт (7%)
    Выравнивание : Соединение по промежуткам
    Продолжительность промежутка : 42 мс. (1,00 видеокадр)
    Время предзагрузки промежутка : 504 мс.




    Скриншоты:
    скриншот   скриншот   скриншот   скриншот   скриншот   скриншот   скриншот  
    скриншот  

    Раздача ведётся путём добавления новых серий. Добавлена 12 серия (17.01.2019).Просьба перекачать торрент файл.

    piratbit.org



  • Скачать Рэй Донован через торрент http://pic1.kartinco.top/images/10/64ull.jpg Скачать фильм Рэй Донован через торрент бесплантно в хорошем качестве qw.png Рэй Донован - первоклассный специалист по устранению проблем любой сложности. Его клиенты - самые знаменитые и влиятельные люди ... 10 10 8
    Info! Золотая раздача, скачанное не засчитывается.
    Торрент: Зарегистрирован [2019-01-17 07:09] · скачан: 158 раз
    Статус: √ проверено
    Размер: 7.8 GB
    Как cкачать? Как скачать Рэй Донован через торрент | qTorrent

    % Раздел Тема Автор DL S | L
    Рэй Донован [ 8.5 GB ] Рэй Донован / Ray Donovan / Сезон: 6 / Серии: 1-12 из 12 [2018 WEB-DLRip] [MVO] killermax2013 Скачать
    1 | 0
    Рэй Донован [ 14.81 GB ] Рэй Донован / Ray Donovan / Сезон: 6 / Серии: 1-12 из 12 [2018-2019 WEB-DL 720p] MVO [Amedia] bober100 Скачать
    1 | 0
    Рэй Донован [ 29.69 GB ] Рэй Донован / Ray Donovan / Сезон: 6 / Серии: 1-12 из 12 [2018 WEB-DL 1080p] [MVO] killermax2013 Скачать
    1 | 0
    Рэй Донован [ 11.32 GB ] Рэй Донован / Ray Donovan / Сезон: 6 / Серии: 1-12 из 12 [2018 WEB-DL 720p] MVO [Jaskier] bober100 Скачать
    1 | 0
    Рэй Донован [ 29.68 GB ] Рэй Донован / Ray Donovan / Сезон: 6 / Серии: 1-12 из 12 [2018 WEB-DL 1080p] [MVO] killermax2013 Скачать
    1 | 0
    Рэй Донован [ 29.73 GB ] Рэй Донован / Ray Donovan / Сезон: 6 / Серии: 1-12 из 12 [2018 WEB-DL 1080p] [MVO] killermax2013 Скачать
    1 | 0
    Рэй Донован [ 7.86 GB ] Рэй Донован / Ray Donovan / Сезон: 6 / Серии: 1-12 из 12 [2018 WEB-DLRip] MVO [Jaskier] bober100 Скачать
    1 | 0


    Последний раз редактировалось: GEKADOL (2019-01-17 07:08), всего редактировалось 4 раз(а)

    28-11-2019 20:33  

    Отключить всю рекламу на сайте

    17-11-2018 09:09 Рэй Донован Скачать торрент  

    какая радостная весть )))) ждемс качестваpiratbit.org



    30-11-2018 06:01 Рэй Донован Скачать торрент  

    ахеренный сериалpiratbit.org



      Дорогой пользователь! Огромная просьба, поблагодарите релизера, оцените раздачу и оставьте свои комментарий, если Вы скачали Рэй Донован через торрент бесплатно! Внесите свою лепту в развитие PiratBit!
      Комментировать посты могут только пользователи прошедшие не сложную регистрацию
      Показать сообщения:    

      Рэй Донован через торрент
      Скачать бесплатно Рэй Донован
      Рэй Донован скачать торрент
      Рэй Донован смотреть онлайн
      Cкачать фильм Рэй Донован бесплатно
      Рэй Донован скачать торрент в хорошем качестве
      Рэй Донован смотреть онлайн бесплатно в хорошем качестве


      Вы не можете начинать темы
      Вы не можете отвечать на сообщения
      Вы не можете редактировать свои сообщения
      Вы не можете удалять свои сообщения
      Вы не можете голосовать в опросах
      Вы не можете прикреплять файлы к сообщениям
      Вы можете скачивать файлы