Лицензия

MVO

1

1 сезон

Лицензия

Лицензия

13

MVO

1 сезон

Deluxe Edition

pack

Рекомендуем

30

Repack

ВАЖНО

ВАЖНО

Ghostwire

RePack

jed

RePack

fifa19

RePack

RDR2

RePack

NEED FOR SPEED™ PAYBACK

RePack

Кинопоиск HD

 Острые козырьки 6 сезон

6 сезон

FAR CRY 6

RePack

Лицензия

MVO

1

1 сезон

1 сезон

Лицензия

  

Суд сумасшедших (Григорий Рошаль) [1961, СССР, фантастика, драма, VHSRip-AVC от AVP Studio]

Суд сумасшедших через торрент piratbit.org

Размер: 1.09 GB | Добавлен: 3 года 10 мес. назад | Торрент скачан:18 раз
Смотреть онлайн Суд сумасшедших | Скачать   

18-11-2018 07:44 Суд сумасшедших Скачать торрент  

Суд сумасшедших
Страна: СССР
Производство: Мосфильм

Жанр: фантастика, драма
Год выпуска: 1961
Продолжительность: 01:54:25

Перевод: Не требуется
Cубтитры: нет
Оригинальная аудиодорожка: русский

Режиссер: Григорий Рошаль

В ролях:
Василий Ливанов, Ирина Скобцева, Виктор Хохряков, Владимир Белокуров, Владимир Емельянов, Андрей Кончаловский, Александр Смирнов, Лидия Сухаревская, Михаил Козаков, Георгий Черноволенко, Владимир Балашов, Юрий Яковлев, Ольга Красина, Майя Булгакова, Гарри Дунц, Ариадна Шенгелая, Роман Хомятов, Роберт Росс, Нонна Тен, Павел Павленко...
Об актёрах подробней

Описание:
Германия, тридцатые годы двадцатого века. Молодой ученый профессор Иоганнес Вернер открыл лучи животворящей силы. Ученый отказывается отдать свое изобретение для использования в военных целях и, разбив аппаратуру, бежит в США, где долгое время скрывается под фамилией Мартини. Однажды, получив приглашение в военно-промышленный концерн для ознакомления с новым европейским изобретением, Вернер встречает своего бывшего ученика Губера. Предатель и фашист Губер по украденным схемам восстановил прибор профессора и демонстрирует его, как свое изобретение.

Исходник: VHS
Качество видео: VHSRip-AVC
Формат видео: MKV

Видео: 716->1172x480 (2,40:1), 25,000 кадров/сек, H264 ~ 1168 kbps avg, 0.136 bit/pixel
Аудио: 48 kHz, Dolby Digital AC3 2.0, 192 kbps

Раздача от:
Общее
Полное имя : Sud.sumasshedshih.1961.VHSRip-AVC_[New-team]_by_AVP_Studio.mkv
Формат : Matroska
Версия формата : Version 2
Размер файла : 1,09 Гбайт
Продолжительность : 1 ч. 54 м.
Общий поток : 1362 Кбит/сек
Дата кодирования : UTC 2018-11-16 13:28:03
Программа кодирования : mkvmerge v6.1.0 ('Old Devil') built on Mar 4 2013 09:10:42
Библиотека кодирования : libebml v1.3.0 + libmatroska v1.4.0

Видео
Идентификатор : 1
Формат : AVC
Формат/Информация : Advanced Video Codec
Профиль формата : High@L4.1
Настройки формата : CABAC / 10 Ref Frames
Параметр CABAC формата : Да
Параметр RefFrames формата : 10 кадров
Идентификатор кодека : V_MPEG4/ISO/AVC
Продолжительность : 1 ч. 54 м.
Битрейт : 1168 Кбит/сек
Ширина : 716 пикселей
Высота : 480 пикселей
Соотношение сторон : 2,40:1
Режим частоты кадров : Постоянный
Частота кадров : 25,000 кадров/сек
Цветовое пространство : YUV
Субдискретизация насыщенности : 4:2:0
Битовая глубина : 8 бит
Тип развёртки : Прогрессивная
Бит/(Пиксели*Кадры) : 0.136
Размер потока : 935 Мбайт (84%)
Библиотека кодирования : x264 core 157 r2932 303c484
Настройки программы : cabac=1 / ref=10 / deblock=1:-2:-1 / analyse=0x3:0x113 / me=umh / subme=10 / psy=1 / psy_rd=1.00:0.00 / mixed_ref=1 / me_range=32 / chroma_me=1 / trellis=2 / 8x8dct=1 / cqm=0 / deadzone=21,11 / fast_pskip=1 / chroma_qp_offset=-2 / threads=6 / lookahead_threads=1 / sliced_threads=0 / nr=0 / decimate=0 / interlaced=0 / bluray_compat=0 / constrained_intra=0 / bframes=8 / b_pyramid=2 / b_adapt=2 / b_bias=0 / direct=3 / weightb=1 / open_gop=0 / weightp=2 / keyint=250 / keyint_min=25 / scenecut=40 / intra_refresh=0 / rc=2pass / mbtree=0 / bitrate=1168 / ratetol=1.0 / qcomp=0.60 / qpmin=0 / qpmax=69 / qpstep=4 / cplxblur=20.0 / qblur=0.5 / ip_ratio=1.40 / pb_ratio=1.30 / aq=1:1.00
Default : Да
Forced : Нет

Аудио
Идентификатор : 2
Формат : AC-3
Формат/Информация : Audio Coding 3
Коммерческое название : Dolby Digital
Идентификатор кодека : A_AC3
Продолжительность : 1 ч. 54 м.
Вид битрейта : Постоянный
Битрейт : 192 Кбит/сек
Каналы : 2 канала
Channel layout : L R
Частота : 48,0 КГц
Частота кадров : 31,250 кадров/сек (1536 SPF)
Битовая глубина : 16 бит
Метод сжатия : С потерями
Размер потока : 157 Мбайт (14%)
Default : Да
Forced : Нет



Скачать Суд сумасшедших через торрент http://picplus.ru/img/1811/18/7c76f09a.png Скачать, смотреть онлайн Суд сумасшедших бесплантно в хорошем качестве Описание:Германия, тридцатые годы двадцатого века. Молодой ученый профессор Иоганнес Вернер открыл лучи животворящей силы. Ученый ... 10 10 3
Info! Золотая раздача, скачанное не засчитывается.
Торрент: Зарегистрирован [2018-11-18 07:44] · скачан: 18 раз
Статус: √ проверено
Размер: 1.09 GB
Как cкачать? Как скачать Суд сумасшедших через торрент | UTorrent

% Раздел Тема Автор DL S | L
Кино СССР [ 745 MB ] Суд сумасшедших | | Суд сумасшедших (Григорий Рошаль AVP Studio Скачать
1 | 0

28-11-2019 20:33  

Отключить вcю реклaмy на сайте

    Дорогой пользователь! Огромная просьба, поблагодарите релизера, оцените раздачу и оставьте свои комментарий, если Вы скачали Суд сумасшедших через торрент бесплатно!!
    Комментировать посты могут только пользователи прошедшие не сложную регистрацию
    Показать сообщения:    


    Суд сумасшедших через торрент
    Скачать бесплатно Суд сумасшедших
    Суд сумасшедших скачать торрент
    Суд сумасшедших смотреть онлайн
    Cкачать фильм Суд сумасшедших бесплатно
    Суд сумасшедших скачать торрент в хорошем качестве
    Суд сумасшедших смотреть онлайн бесплатно в хорошем качестве
    Вы не можете начинать темы
    Вы не можете отвечать на сообщения
    Вы не можете редактировать свои сообщения
    Вы не можете удалять свои сообщения
    Вы не можете голосовать в опросах
    Вы не можете прикреплять файлы к сообщениям
    Вы можете скачивать файлы