2 сезон

iTunes

WEBRip

1

2 сезон

iTunes

1 сезон

1 сезон

RePack

30

Новинка

ВАЖНО

ИГРА 18+

pack

RePack

MK11
pack

Легкие деньги

RePack

jed

RePack

fifa19

RePack

RDR2

RePack

NEED FOR SPEED™ PAYBACK

4 сезон

9 сезон

Бесстыжие 9 сезон

Все сериалы

все сериалы на PB.wtf

RePack

FAR CRY 5

Anonymous, добрый вечер, мы не успеваем собрать деньги на оплату серверов за февраль, помогите нам пожалуйста в это трудное время. В качестве благодарности мы отключим Вам всю рекламу на сайте (укажите свой ник в строку Ваше имя)!

×
  
Magnet ссылка

Украденная принцесса: Руслан и Людмила / The Stolen Princess (Олег Маламуж) [2018 г., Мультфильм, фэнтези, комедия, WEB-DL 1080p] [Ukr DUB] piratbit.org

Украденная принцесса: Руслан и Людмила через торрент piratbit.org

Размер: 2.99 GB | Добавлен: 2 года 3 мес. назад | Торрент скачан:65 раз
Скачать  

18-11-2018 16:23 Украденная принцесса: Руслан и Людмила Скачать торрент  

Украденная принцесса: Руслан и Людмила / The Stolen Princess
Год выпуска: 2018
Страна: Украина
Жанр: Мультфильм, фэнтези, комедия
Продолжительность: 01:30:52
Перевод: Украинский (дублированный) студия Postmodern
Субтитры: нет

Режиссер: Олег Маламуж


В ролях: Надежда Дорофеева, Алексей Завгородний, Евгений Малуха, Сергей Притула, Юрий Горбунов, Олег Михайлюта, Николай Боклан, Маша Ефросинина, Егор Крутоголов, Евгений Гашенко Эта удивительная история случилась в славном городе Киеве во времена отважных воинов, прекрасных принцесс и могущественных колдунов. Бродячий артист Руслан, мечтающий стать рыцарем, встретил прекрасную Милу и влюбился в неё, даже не подозревая, что девушка — дочь киевского князя. Но счастью влюбленных было не суждено продлиться вечно: злой колдун Черномор явился в магическом вихре и на глазах Руслана похитил возлюбленную, рассчитывая превратить силу её любви в собственное колдовское могущество. Не раздумывая, Руслан пустился в погоню за украденной принцессой, чтобы, преодолев все преграды и опасности на своем пути, доказать, что настоящая любовь — сильнее магии.

ratingскриншот  

Качество: WEB-DL 1080p
Формат видео: MKV
Видео кодек: AVC
Аудио кодек: AC3
Видео: 1912х800 , 24.000 fps, ~4432 kbps avg
Аудио: 48 kHz, AC3 Dolby Digital, 2/0 (L,R) ch, ~192 kbps
General
Unique ID : 267846613513354188678612721842577573971 (0xC981619FF1C660BB43601DAE974D8853)
Complete name : E:\Викрадена принцеса (2018) WEB-DL 1080p [Hurtom].mkv
Format : Matroska
Format version : Version 4 / Version 2
File size : 2.99 GiB
Duration : 1 h 30 min
Overall bit rate : 4 718 kb/s
Encoded date : UTC 2018-11-17 19:55:58
Writing application : mkvmerge v28.2.0 ('The Awakening') 64-bit
Writing library : libebml v1.3.6 + libmatroska v1.4.9

Video
ID : 1
Format : AVC
Format/Info : Advanced Video Codec
Format profile : High@L4
Format settings : CABAC / 5 Ref Frames
Format settings, CABAC : Yes
Format settings, RefFrames : 5 frames
Codec ID : V_MPEG4/ISO/AVC
Duration : 1 h 30 min
Bit rate : 4 432 kb/s
Width : 1 912 pixels
Height : 800 pixels
Display aspect ratio : 2.40:1
Frame rate mode : Constant
Frame rate : 24.000 FPS
Color space : YUV
Chroma subsampling : 4:2:0
Bit depth : 8 bits
Scan type : Progressive
Bits/(Pixel*Frame) : 0.121
Stream size : 2.81 GiB (94%)
Language : English
Default : Yes
Forced : No
Color range : Limited
Color primaries : BT.709
Transfer characteristics : BT.709
Matrix coefficients : BT.709

Audio
ID : 2
Format : AC-3
Format/Info : Audio Coding 3
Format settings, Endianness : Big
Codec ID : A_AC3
Duration : 1 h 30 min
Bit rate mode : Constant
Bit rate : 192 kb/s
Channel(s) : 2 channels
Channel positions : Front: L R
Sampling rate : 48.0 kHz
Frame rate : 31.250 FPS (1536 SPF)
Bit depth : 16 bits
Compression mode : Lossy
Stream size : 125 MiB (4%)
Title : AC3 2.0 @ 192 kbps
Language : Ukrainian
Service kind : Complete Main
Default : Yes
Forced : No

Menu
00:00:00.000 : en:1
00:10:00.791 : en:2
00:20:01.957 : en:3
00:30:00.623 : en:4
00:40:05.373 : en:5
00:50:09.873 : en:6
01:00:01.956 : en:7
01:10:01.414 : en:8
01:20:14.997 : en:9
скриншот   скриншот   скриншот  
piratbit.org



Скачать Украденная принцесса: Руслан и Людмила через торрент https://i98.fastpic.ru/big/2018/1118/ae/1b503469940d6eec2581f13db50537ae.jpg Скачать фильм Украденная принцесса: Руслан и Людмила через торрент бесплантно в хорошем качестве В ролях: Надежда Дорофеева, Алексей Завгородний, Евгений Малуха, Сергей Притула, Юрий Горбунов, Олег Михайлюта, Николай Боклан, Маша ... 10 10 4
Info! Золотая раздача, скачанное не засчитывается.
Торрент: Зарегистрирован [2018-11-18 16:23] · скачан: 65 раз
Статус: √ проверено
Размер: 2.99 GB
Как cкачать? Как скачать Украденная принцесса: Руслан и Людмила через торрент | UTorrent

% Раздел Тема Автор DL S | L
Фильмы с украинским озвучиванием [ 1.46 GB ] Украденная принцесса: Руслан и Людмила / The Stolen Princess [2018 мультфильм BDRip] - [Украинский] Twi7ter Скачать
1 | 0

28-11-2019 20:33  

Отключить всю рекламу на сайте

18-11-2018 17:13 Украденная принцесса: Руслан и Людмила Скачать торрент  

Спасибо.piratbit.org



19-11-2018 02:15 Украденная принцесса: Руслан и Людмила Скачать торрент  

Пилять, зачем современные авторы смешивают былину с дерьмом? Неужели нельзя просто сделать ремейк, нет, надо "привнести изюминку", которая как правило оказывается засохшим кизяком. Классические театральные постановки превратили в УГ, потому как придумать ничего подобного не в силах, теперь и до народных сказаний добрались.piratbit.org



20-11-2018 09:11 Украденная принцесса: Руслан и Людмила Скачать торрент  

Suicide297 писал(а):

Пилять, зачем современные авторы смешивают былину с дерьмом? Неужели нельзя просто сделать ремейк, нет, надо "привнести изюминку", которая как правило оказывается засохшим кизяком. Классические театральные постановки превратили в УГ, потому как придумать ничего подобного не в силах, теперь и до народных сказаний добрались.

Застрелись.piratbit.org



    Дорогой пользователь! Огромная просьба, поблагодарите релизера, оцените раздачу и оставьте свои комментарий, если Вы скачали Украденная принцесса: Руслан и Людмила через торрент бесплатно! Внесите свою лепту в развитие PiratBit!
    Комментировать посты могут только пользователи прошедшие не сложную регистрацию
    Показать сообщения:    

    Украденная принцесса: Руслан и Людмила через торрент
    Скачать бесплатно Украденная принцесса: Руслан и Людмила
    Украденная принцесса: Руслан и Людмила скачать торрент
    Украденная принцесса: Руслан и Людмила смотреть онлайн
    Cкачать фильм Украденная принцесса: Руслан и Людмила бесплатно
    Украденная принцесса: Руслан и Людмила скачать торрент в хорошем качестве
    Украденная принцесса: Руслан и Людмила смотреть онлайн бесплатно в хорошем качестве


    Вы не можете начинать темы
    Вы не можете отвечать на сообщения
    Вы не можете редактировать свои сообщения
    Вы не можете удалять свои сообщения
    Вы не можете голосовать в опросах
    Вы не можете прикреплять файлы к сообщениям
    Вы можете скачивать файлы