Ребята, если до конца года каждый наш пользователь пожертвует хотя бы 10 рублей, нам хватит денег оплатить все наши расходы.

iTunes

iTunes

Миссия невыполнима: Последствия

iTunes

Поиск

4 сезон

дом

MVO

venom

iTunes

Багровая мята

iTunes

Проклятие монахини

iTunes

Человек на Луне Хит недели

ИГРА 18+

pack

RePack

Battlefield V Хит недели

RePack

Assassins Creed: Odyssey
pack

RePack

Darksiders 3

iTunes 4K

Миссия невыполнима: Последствия

RePack

fifa19

!!Акция!!

Alien_RageХит недели

RePack

NEED FOR SPEED™ PAYBACK

SATRip

9 сезон

Бесстыжие 9 сезон

Все сериалы

все сериалы на PB.wtf

iTunes

Мэнди

RePack

FAR CRY 5
  

Медичи: Великолепные / Medici: The Magnificent / Сезон: 2 / Серия: 1-8 из 8 (Джон Кассар, Жан Микелини) [2018, драма, WEB-DLRip 720p] [MVO] (Jaskier)

Медичи: Великолепные через торрент

Раздают: 3 [ 426 KB/s ] Качают: 2 [ 0 KB/s ]
Размер: 6.96 GB | Добавлен: 7 д. назад | Торрент скачан:18 раз
Скачать  

20-11-2018 15:25 Медичи: Великолепные Скачать торрент  


Медичи: Великолепные / Medici: The Magnificent

Год выпуска: 2018
Страна: Великобритания, Италия
Жанр: драма
Продолжительность: ~ 00:59:00
Перевод: Профессиональный (многоголосый закадровый) | Jaskier
Режиссёр: Джон Кассар, Жан Микелини
В ролях: Дэниэл Шарман, Брэдли Джеймс, Шон Бин, Сара Пэриш, Алессандра Мастронарди, Сюннёве Карлсен, Рауль Бова, Джулиан Сэндс, Якопо Ольмо Антинори, Эдвард Дринг и др.
Описание: Вторая половина XV века. Над флорентийскими правителями и меценатами Медичи нависла угроза: глава семейства серьезно ранен во время покушения, враги из рода Пацци пытаются отнять власть, у стен города — войско неаполитанцев. Вся надежда на юного Лоренцо де Медичи: именно он должен спасти положение семьи, уберечь Флоренцию от разрушения и оказаться перед любовным выбором между знатной Клариче Орсини и прекрасной Лукрецией Донати. Все это будет непросто — дикие нравы здесь легко уживаются с заоблачными представлениями о чести. Это время уходящего Средневековья и наступающего Ренессанса. Тут сражаются на мечах, осаждают города, плетут интриги, но создают шедевры, чисто и бескорыстно любят. Однако красота старинных палаццо, произведения Боттичелли и Макиавелли не остановят кровопролития.
скриншот  

Рип - Sergey6161

Качество: WEB-DLRip 720p
Формат: MKV
Видео: MPEG-4 AVC, ~ 2000 Кбит/с, 1280x640
Аудио: AC3, 48,0 КГц, 2 ch, 192 kbs
Субтитры: отсутствуют
Переведено и озвучено: студией Jaskier
General
Unique ID : 225841349410151744791644946523611049427 (0xA9E776354FFBACF5AD64569434F1ADD3)
Complete name : 2 сезон - 2018 Медичи-Великолепные Медичи\01-Medici.The Magnificent.s02-2018.720p.WEB-DLRip.(AVC)-Srg6161.mkv
Format : Matroska
File size : 893 MiB
Duration : 55mn 30s
Overall bit rate : 2 249 Kbps
Movie name : Медичи: Великолепные Медичи (Medici:The Magnificent) s02.e01.2018 == Rip by Srg6161 ==
Encoded date : UTC 2018-11-11 17:14:55
Writing application : mkvmerge v7.4.0 ('Circles') 64bit built on Dec 12 2014 12:19:56
Writing library : libebml v1.3.0 + libmatroska v1.4.1
Video #1
ID : 1
Format : AVC
Format/Info : Advanced Video Codec
Format profile : High@L4.1
Format settings, CABAC : Yes
Format settings, ReFrames : 5 frames
Codec ID : V_MPEG4/ISO/AVC
Duration : 55mn 30s
Bit rate : 2 070 Kbps
Width : 1 280 pixels
Height : 640 pixels
Display aspect ratio : 2.000
Frame rate : 25.000 fps
Color space : YUV
Chroma subsampling : 4:2:0
Bit depth : 8 bits
Scan type : Progressive
Bits/(Pixel*Frame) : 0.101
Stream size : 799 MiB (89%)
Title : Медичи: Великолепные Медичи (Medici:The Magnificent) s02-2018 (01 seriya) - Rip by Srg6161
Writing library : x264 core 142 r2431 ac76440
Encoding settings : cabac=1 / ref=5 / deblock=1:-1:-1 / analyse=0x3:0x133 / me=hex / subme=7 / psy=1 / psy_rd=1.00:0.00 / mixed_ref=1 / me_range=16 / chroma_me=1 / trellis=1 / 8x8dct=1 / cqm=0 / deadzone=21,11 / fast_pskip=0 / chroma_qp_offset=-2 / threads=6 / lookahead_threads=1 / sliced_threads=0 / nr=0 / decimate=1 / interlaced=0 / bluray_compat=0 / constrained_intra=0 / bframes=3 / b_pyramid=2 / b_adapt=1 / b_bias=0 / direct=1 / weightb=1 / open_gop=0 / weightp=2 / keyint=250 / keyint_min=25 / scenecut=40 / intra_refresh=0 / rc_lookahead=40 / rc=2pass / mbtree=1 / bitrate=2070 / ratetol=1.0 / qcomp=0.60 / qpmin=0 / qpmax=69 / qpstep=4 / cplxblur=20.0 / qblur=0.5 / vbv_maxrate=50000 / vbv_bufsize=62500 / nal_hrd=none / filler=0 / ip_ratio=1.40 / aq=1:1.00
Language : English
Audio #2
ID : 2
Format : AC-3
Format/Info : Audio Coding 3
Mode extension : CM (complete main)
Codec ID : A_AC3
Duration : 55mn 30s
Bit rate mode : Constant
Bit rate : 192 Kbps
Channel(s) : 2 channels
Channel positions : Front: L R
Sampling rate : 48.0 KHz
Bit depth : 16 bits
Compression mode : Lossy
Stream size : 76.2 MiB (9%)
Title : Профессиональный (многоголосый закадровый) - Студия Jaskier
Language : Russian
скриншот  скриншот  скриншот  



Скачать Медичи: Великолепные через торрент https://d.radikal.ru/d13/1811/9c/bc3cc16a0959.png Скачать фильм Медичи: Великолепные через торрент бесплантно в хорошем качестве Описание: Вторая половина XV века. Над флорентийскими правителями и меценатами Медичи нависла угроза: глава семейства серьезно ранен во ... 9.8 10 5
Торрент: Зарегистрирован [2018-12-06 19:46] · скачан: 18 раз
Статус: √ проверено
Размер: 6.96 GB
Как cкачать? Как скачать Медичи: Великолепные через торрент | qTorrent

% Раздел Тема Автор DL S | L
Зарубежные сериалы [ 16.27 GB ] Медичи: Великолепные / Medici: The Magnificent / Сезон: 2 / Серия: 1-8 из 8 [2018 WEB-DL 1080p] [MVO] killermax2013 Скачать
7 | 0
Зарубежные сериалы [ 2.03 GB ] Медичи: Великолепные / Medici: The Magnificent / Сезон: 2 / Серии: 1-3 из 8 [2018 WEB-DLRip] [MVO] killermax2013 Скачать
4 | 0
Зарубежные сериалы [ 5.87 GB ] Великолепные Медичи / Medici: The Magnificent / Сезон: 2 / Серии: 1-3 из 8 [2018 История WEB-DL 1080p] [MVO] killermax2013 Скачать
2 | 0


>> Регистрируемся здесь <<






Отзывы и комментарии о схеме читаем и пишем здесь: ---> Отзывы и комментарии о схеме

Новые благодарочки в телеграм довольных пользователей:
скриншот   скриншот   скриншот   скриншот   скриншот
    Дорогой пользователь! Огромная просьба, поблагодарите релизера, оцените раздачу и оставьте свои комментарий, если Вы скачали Медичи: Великолепные через торрент бесплатно! Внесите свою лепту в развитие PiratBit!
    Комментировать посты могут только пользователи прошедшие не сложную регистрацию
    Показать сообщения:    

    Медичи: Великолепные через торрент
    Скачать бесплатно Медичи: Великолепные
    Медичи: Великолепные скачать торрент
    Медичи: Великолепные смотреть онлайн
    Cкачать фильм Медичи: Великолепные бесплатно
    Медичи: Великолепные скачать торрент в хорошем качестве
    Медичи: Великолепные смотреть онлайн бесплатно в хорошем качестве


    Вы не можете начинать темы
    Вы не можете отвечать на сообщения
    Вы не можете редактировать свои сообщения
    Вы не можете удалять свои сообщения
    Вы не можете голосовать в опросах
    Вы не можете прикреплять файлы к сообщениям
    Вы можете скачивать файлы