Ссылка на приватное зеркало всего за 1$. Внимание количество ограничено!!!

iTunes

iTunes

iTunes

1

iTunes

iTunes

iTunes

iTunes

iTunes

30
pack

Новость дня

ВАЖНО

!!Акция!!

Alien_RageХит недели

RePack

Resident Evil 21

ИГРА 18+

pack

RePack

jed

!!Акция!!

Alien_Rage

RePack

fifa19

RePack

Assassins Creed: Odyssey

RePack

NEED FOR SPEED™ PAYBACK

4 сезон

9 сезон

Бесстыжие 9 сезон

Все сериалы

все сериалы на PB.wtf

RePack

FAR CRY 5
  

Рэй Донован / Ray Donovan / Сезон: 6 / Серии: 1-12 из 12 (Такер Гейтс, Дэниэл Эттиэс, Майкл Аппендаль) [2018, драма, криминал, WEB-DLRip] MVO [Jaskier] piratbit.org

Рэй Донован через торрент piratbit.org

Размер: 7.86 GB | Добавлен: 1 год 2 мес. назад | Торрент скачан:14 раз
Скачать  

20-11-2018 18:50 Рэй Донован Скачать торрент  

Рэй Донован | Ray Donovan

Год выпуска: 2018
Страна: США
Жанр: Драма, криминал
Продолжительность: ~ 00:58:00
Перевод: Профессиональный (многоголосый закадровый) | Jaskier
Субтитры: отсутствуют

Режиссёр: Такер Гейтс, Дэниэл Эттиэс, Майкл Аппендаль

В ролях:

Лив Шрайбер, Паула Малкомсон, Кэтрин Монниг, Пуч Холл, Кэррис Дорси, Девон Бэгби, Джон Войт, Стивен Бауэр, Уильям Стэнфорд Дэвис, Майкл МакГрэйди, Фрэнк Уэйли, Эллиотт Гулд, Октавиус Дж. Джонсон, Эмбир Чилдерс и др.

Описание:

Рэй Донован - первоклассный специалист по устранению проблем любой сложности. Его клиенты - самые знаменитые и влиятельные люди Лос-Анджелеса, для которых он исполняет практически любые задания. Единственные проблемы, которые Рэю не под силу уладить, возникают в его собственной семье в Южном Бостоне. Одна из них - освобожденный из тюрьмы папаша-гангстер, угрожающий благополучию семейства. Помимо этого, один из братьев Рэя никак не может прийти в себя после совершенного над ним насилия, а второй страдает от болезни Паркинсона. Рэю Доновану предстоит не только помочь близким, но и защитить собственную жену и детей от своего коварного отца, который жаждет вновь занять позицию главы семьи.



Качество: WEB-DLRip
Формат: AVI

Видео: XviD, ~ 1400 kbps, 720x400 (16:9), 23.976 fps
Аудио 1: MP3, 48,0 КГц, 2 ch, 128 kbps - Rus
Аудио 2: MP3, 48,0 КГц, 2 ch, 128 kbps - Eng


Реклама: Присутствует звуковая (два раза в начале и конце по 12 сек.)
Переведено и озвучено: студией Jaskier
Общее
Полное имя                               : G:\Загрузки\Ray.Donovan.S06E01.WEB-DLRip.Rus.Eng.Jaskier.avi
Формат                                   : AVI
Формат/Информация                        : Audio Video Interleave
Размер файла                             : 701 Мбайт
Продолжительность                        : 59 м. 5 с.
Общий поток                              : 1658 Кбит/сек
Программа кодирования                    : VirtualDubMod 1.5.10.3 | www.virtualdub-fr.org || (build 2550/release)
Библиотека кодирования                   : VirtualDubMod build 2550/release

Видео
Идентификатор                            : 0
Формат                                   : MPEG-4 Visual
Профиль формата                          : Advanced Simple@L5
Настройки формата                        : BVOP1 / Custom Matrix
Параметр BVOP формата                    : 1
Параметр QPel формата                    : Нет
Параметр GMC формата                     : Без точки перехода
Параметр матрицы формата                 : Выборочная
Идентификатор кодека                     : XVID
Идентификатор кодека/Подсказка           : XviD
Продолжительность                        : 59 м. 5 с.
Битрейт                                  : 1388 Кбит/сек
Ширина                                   : 720 пикселей
Высота                                   : 400 пикселей
Соотношение сторон                       : 16:9
Частота кадров                           : 23,976 (24000/1001) кадра/сек
Частота кадров в оригинале               : 23,976 (23976/1000) кадра/сек
Цветовое пространство                    : YUV
Субдискретизация насыщенности            : 4:2:0
Битовая глубина                          : 8 бит
Тип развёртки                            : Прогрессивная
Метод сжатия                             : С потерями
Бит/(Пиксели*Кадры)                      : 0.201
Размер потока                            : 587 Мбайт (84%)
Библиотека кодирования                   : XviD 73

Аудио #1
Идентификатор                            : 1
Формат                                   : MPEG Audio
Версия формата                           : Version 1
Профиль формата                          : Layer 3
Настройки формата                        : Joint stereo / MS Stereo
Идентификатор кодека                     : 55
Идентификатор кодека/Подсказка           : MP3
Продолжительность                        : 59 м. 5 с.
Вид битрейта                             : Постоянный
Битрейт                                  : 128 Кбит/сек
Каналы                                   : 2 канала
Частота                                  : 48,0 КГц
Метод сжатия                             : С потерями
Размер потока                            : 54,1 Мбайт (8%)
Выравнивание                             : Соединение по промежуткам
Продолжительность промежутка             : 42  мс. (1,00 видеокадр)
Время предзагрузки промежутка            : 504  мс.

Аудио #2
Идентификатор                            : 2
Формат                                   : MPEG Audio
Версия формата                           : Version 1
Профиль формата                          : Layer 3
Настройки формата                        : Joint stereo
Идентификатор кодека                     : 55
Идентификатор кодека/Подсказка           : MP3
Продолжительность                        : 59 м. 5 с.
Вид битрейта                             : Постоянный
Битрейт                                  : 128 Кбит/сек
Каналы                                   : 2 канала
Частота                                  : 48,0 КГц
Метод сжатия                             : С потерями
Размер потока                            : 54,1 Мбайт (8%)
Выравнивание                             : Соединение по промежуткам
Продолжительность промежутка             : 42  мс. (1,00 видеокадр)
Время предзагрузки промежутка            : 504  мс.
скриншот  скриншот  скриншот  
Когда раздача ведётся путём добавления новых серий, при каждом добавлении создётся новый торрент. Чтобы начать докачку новой серии, пользователям необходимо сделать следующее:
(1) остановить скачивание,
(2) удалить старый торрент у себя из клиента (старые серии удалять не надо),
(3) скачать новый торрент и запустить его у себя в клиенте вместо старого, при этом указать клиенту путь в старую папку, куда и должно происходить скачивание новых серий.
Ваш клиент при этом должен произвести хеширование (проверку) старой папки (если не производит сам - помогите ему сделать это), и будет докачивать только те серии, которых у вас ещё нет. Старые серии при этом не удаляются, а продолжают раздаваться!
Eсли вы уже удалили старые серии, то предотвратить повторную закачку старых серий можно, отжав галочку в соответсвующих местах при запуске нового торрента. По возможности, желательно не удалять старые серии как можно дольше, чтобы релизёр не столько продолжал раздавать старые серии, а смог сконцентрироваться на новых.
piratbit.org



Скачать Рэй Донован через торрент https://b.radikal.ru/b16/1811/44/812b349a5e76.png Скачать фильм Рэй Донован через торрент бесплантно в хорошем качестве Описание: Рэй Донован - первоклассный специалист по устранению проблем любой сложности. Его клиенты - самые знаменитые и влиятельные люди ... 8.8 10 4
Торрент: Зарегистрирован [2019-01-17 01:42] · скачан: 14 раз
Статус: √ проверено
Размер: 7.86 GB
Как cкачать? Как скачать Рэй Донован через торрент | qTorrent

% Раздел Тема Автор DL S | L
Рэй Донован [ 8.5 GB ] Рэй Донован / Ray Donovan / Сезон: 6 / Серии: 1-12 из 12 [2018 WEB-DLRip] [MVO] killermax2013 Скачать
1 | 0
Рэй Донован [ 14.81 GB ] Рэй Донован / Ray Donovan / Сезон: 6 / Серии: 1-12 из 12 [2018-2019 WEB-DL 720p] MVO [Amedia] bober100 Скачать
1 | 0
Рэй Донован [ 29.69 GB ] Рэй Донован / Ray Donovan / Сезон: 6 / Серии: 1-12 из 12 [2018 WEB-DL 1080p] [MVO] killermax2013 Скачать
1 | 0
Рэй Донован [ 11.32 GB ] Рэй Донован / Ray Donovan / Сезон: 6 / Серии: 1-12 из 12 [2018 WEB-DL 720p] MVO [Jaskier] bober100 Скачать
1 | 0
Рэй Донован [ 29.68 GB ] Рэй Донован / Ray Donovan / Сезон: 6 / Серии: 1-12 из 12 [2018 WEB-DL 1080p] [MVO] killermax2013 Скачать
1 | 0
Рэй Донован [ 29.73 GB ] Рэй Донован / Ray Donovan / Сезон: 6 / Серии: 1-12 из 12 [2018 WEB-DL 1080p] [MVO] killermax2013 Скачать
1 | 0
Рэй Донован [ 7.8 GB ] Рэй Донован / Ray Donovan / Сезон: 6 / Серии 1-12 из 12 [2018 WEB-DLRip] MVO [NewStudio] GEKADOL Скачать
1 | 0

28-11-2019 20:33  

Отключить всю рекламу на сайте

    Дорогой пользователь! Огромная просьба, поблагодарите релизера, оцените раздачу и оставьте свои комментарий, если Вы скачали Рэй Донован через торрент бесплатно! Внесите свою лепту в развитие PiratBit!
    Комментировать посты могут только пользователи прошедшие не сложную регистрацию
    Показать сообщения:    

    Рэй Донован через торрент
    Скачать бесплатно Рэй Донован
    Рэй Донован скачать торрент
    Рэй Донован смотреть онлайн
    Cкачать фильм Рэй Донован бесплатно
    Рэй Донован скачать торрент в хорошем качестве
    Рэй Донован смотреть онлайн бесплатно в хорошем качестве


    Вы не можете начинать темы
    Вы не можете отвечать на сообщения
    Вы не можете редактировать свои сообщения
    Вы не можете удалять свои сообщения
    Вы не можете голосовать в опросах
    Вы не можете прикреплять файлы к сообщениям
    Вы можете скачивать файлы