Мега распродажа FORZA HORIZON 4 ULTIMATE+ВСЕ DLC+ОНЛАЙН всего за 499р. 349 руб. (супер цена). Внимание количество ограничено!!!

iTunes

1+1

iTunes

мы

iTunes

1

1 сезон

Чернобыль

1 сезон

Ральф против интернета

Лицензия

ПШазам

8 сезон

Игра престолов

Лицензия

30
pack

ВАЖНО

!!Акция!!

Alien_RageХит недели

RePack

Resident Evil 21

ИГРА 18+

pack

RePack

Metro:Exodus

!!Акция!!

Alien_Rage

RePack

fifa19

RePack

Assassins Creed: Odyssey

RePack

NEED FOR SPEED™ PAYBACK

3 сезон

9 сезон

Бесстыжие 9 сезон

Все сериалы

все сериалы на PB.wtf

RePack

FAR CRY 5
Ребята, катастрофически не хватает 2730р. для оплаты серверов за ИЮНЬ (всвязи с блокировками трафик упал в 3 раза), 1-2р., выручайте.
  

Бомбардировка / Air Strike / The Bombing / Da hong zha (Сяо Фэн / Xiao Feng) [2018, боевик, драма, военный, WEB-DLRip-AVC] DVO [HiWay Grope] piratbit.org

Бомбардировка через торрент piratbit.org

Раздают: 3 [ 0 KB/s ]
Размер: 1.46 GB | Добавлен: 7 мес. назад | Торрент скачан:275 раз
Скачать  

21-11-2018 09:04 Бомбардировка Скачать торрент  

Бомбардировка
Air Strike / The Bombing / Da hong zha

Страна: Китай
Жанр: боевик, драма, военный, история

Год выпуска: 2018
Продолжительность: 01:36:48

Перевод: Любительский (двухголосый, закадровый) [HiWay Grope]
Субтитры: русские (полные), английские (форсированные (на китайский, хардсаб), полные, SDH)
Оригинальная аудиодорожка: английский

Режиссер: Сяо Фэн / Xiao Feng

В ролях: Лю Е, Брюс Уиллис, Сон Сын-хон, Уильям Чан, Николас Тсе, Фань Вэй, Эдриан Броуди, Ева Хуан, Фань Бинбин, Ма Су, Джанин Чан, У Ган

Описание:
Февраль 1938 года, Вторая японо-китайская война. После вынужденного переноса китайской столицы в Чунцин японское командование принимает решение - стереть город с лица земли. Японцы готовились к войне на Тихом океане и надеялись принудить правительство Чан Кайши к скорейшему выходу из войны. Тысячи тонн снарядов обрушиваются на мирные кварталы Чунцина.



Релиз:

Автор рипа: stalkerok
Без рекламы!

Сэмпл

Качество видео: WEB-DLRip-AVC [The.Bombing.2018.1080p.WEB-DL.DD5.1.H264-CMRG]
Формат видео: MKV
Видео кодек: AVC
Аудио кодек: AC3
Видео: AVC, 1393 Кбит/сек, 954x396 (2.40:1), 23,976 кадр/сек
Аудио №1: AC3, 384 Кбит/сек, 48 КГц, 5.1 - русский
Аудио №2: AC3, 384 Кбит/сек, 48 КГц, 5.1 - английский
---[Information] [20.11.2018 23:35:40] x264 [info]: frame I:1510 Avg QP:17.06 size: 37437
---[Information] [20.11.2018 23:35:40] x264 [info]: frame P:38856 Avg QP:18.21 size: 13190
---[Information] [20.11.2018 23:35:40] x264 [info]: frame B:98909 Avg QP:21.13 size: 4475

General
Unique ID : 282583783965911949428401355175468120867 (0xD497A839EC0B7C89410A6B5C2FDABB23)
Complete name : O:\Temp\Air Strike\The.Bombing.2018.WEB-DLRip.x264.Rus.Eng.stalkerok.New-Team.mkv
Format : Matroska
Format version : Version 4 / Version 2
File size : 1.46 GiB
Duration : 1 h 36 min
Overall bit rate : 2 163 kb/s
Movie name : Air Strike (The Bombing) (2018) | Rip by stalkerok
Encoded date : UTC 2018-11-20 20:38:37
Writing application : mkvmerge v28.2.0 ('The Awakening') 64-bit
Writing library : libebml v1.3.6 + libmatroska v1.4.9

Video
ID : 1
Format : AVC
Format/Info : Advanced Video Codec
Format profile : High@L4.1
Format settings, CABAC : Yes
Format settings, ReFrames : 12 frames
Codec ID : V_MPEG4/ISO/AVC
Duration : 1 h 36 min
Bit rate : 1 393 kb/s
Width : 954 pixels
Height : 396 pixels
Display aspect ratio : 2.40:1
Frame rate mode : Constant
Frame rate : 23.976 FPS
Color space : YUV
Chroma subsampling : 4:2:0
Bit depth : 8 bits
Scan type : Progressive
Bits/(Pixel*Frame) : 0.154
Stream size : 965 MiB (64%)
Title : Air Strike (The Bombing) (2018) | Rip by stalkerok
Writing library : x264 core 157 r2932 303c484
Encoding settings : cabac=1 / ref=12 / deblock=1:-3:-2 / analyse=0x3:0x133 / me=umh / subme=10 / psy=1 / psy_rd=1.00:0.00 / mixed_ref=1 / me_range=32 / chroma_me=1 / trellis=2 / 8x8dct=1 / cqm=0 / deadzone=21,11 / fast_pskip=0 / chroma_qp_offset=-2 / threads=12 / lookahead_threads=3 / sliced_threads=0 / nr=0 / decimate=1 / interlaced=0 / bluray_compat=0 / constrained_intra=0 / bframes=14 / b_pyramid=2 / b_adapt=2 / b_bias=0 / direct=3 / weightb=1 / open_gop=0 / weightp=2 / keyint=240 / keyint_min=23 / scenecut=40 / intra_refresh=0 / rc_lookahead=60 / rc=crf / mbtree=0 / crf=19.4 / qcomp=0.65 / qpmin=0 / qpmax=69 / qpstep=4 / vbv_maxrate=50000 / vbv_bufsize=62500 / crf_max=0.0 / nal_hrd=none / filler=0 / ip_ratio=1.40 / pb_ratio=1.30 / aq=3:0.80
Default : Yes
Forced : No

Audio #1
ID : 2
Format : AC-3
Format/Info : Audio Coding 3
Mode extension : CM (complete main)
Format settings, Endianness : Big
Codec ID : A_AC3
Duration : 1 h 36 min
Bit rate mode : Constant
Bit rate : 384 kb/s
Channel(s) : 6 channels
Channel positions : Front: L C R, Side: L R, LFE
Sampling rate : 48.0 kHz
Frame rate : 31.250 FPS (1536 spf)
Compression mode : Lossy
Stream size : 266 MiB (18%)
Title : HiWayGrope
Language : Russian
Default : Yes
Forced : No

Audio #2
ID : 3
Format : AC-3
Format/Info : Audio Coding 3
Mode extension : CM (complete main)
Format settings, Endianness : Big
Codec ID : A_AC3
Duration : 1 h 36 min
Bit rate mode : Constant
Bit rate : 384 kb/s
Channel(s) : 6 channels
Channel positions : Front: L C R, Side: L R, LFE
Sampling rate : 48.0 kHz
Frame rate : 31.250 FPS (1536 spf)
Compression mode : Lossy
Stream size : 266 MiB (18%)
Language : English
Default : No
Forced : No

Text #1
ID : 4
Format : UTF-8
Codec ID : S_TEXT/UTF8
Codec ID/Info : UTF-8 Plain Text
Duration : 1 h 26 min
Bit rate : 51 b/s
Count of elements : 769
Stream size : 32.7 KiB (0%)
Language : Russian
Default : No
Forced : No

Text #2
ID : 5
Format : UTF-8
Codec ID : S_TEXT/UTF8
Codec ID/Info : UTF-8 Plain Text
Duration : 1 h 26 min
Bit rate : 38 b/s
Count of elements : 860
Stream size : 24.6 KiB (0%)
Language : English
Default : No
Forced : No

Text #3
ID : 6
Format : UTF-8
Codec ID : S_TEXT/UTF8
Codec ID/Info : UTF-8 Plain Text
Duration : 1 h 26 min
Bit rate : 43 b/s
Count of elements : 1028
Stream size : 27.4 KiB (0%)
Title : SDH
Language : English
Default : No
Forced : No
piratbit.org



Скачать Бомбардировка через торрент http://i6.imageban.ru/out/2017/09/18/2ff75c0c358795c5946784cc1680714d.png Скачать фильм Бомбардировка через торрент бесплантно в хорошем качестве Описание:Февраль 1938 года, Вторая японо-китайская война. После вынужденного переноса китайской столицы в Чунцин японское командование ... 9.9 10 8
Info! Золотая раздача, скачанное не засчитывается.
Торрент: Зарегистрирован [2018-11-21 09:04] · скачан: 275 раз
Статус: T временная
Размер: 1.46 GB
Как cкачать? Как скачать Бомбардировка через торрент | qTorrent

% Раздел Тема Автор DL S | L
T Фильмы (WEB-DL 720p, 1080p) [ 3.57 GB ] Бомбардировка / Air Strike / The Bombing / Da hong zha [2018 военный WEB-DL 1080p] DVO [HiWay Grope] sokol_ok Скачать
1 | 0


>> Регистрируемся здесь <<






Отзывы и комментарии о схеме читаем и пишем здесь: ---> Отзывы и комментарии о схеме

Новые благодарочки в телеграм довольных пользователей:
скриншот   скриншот   скриншот   скриншот   скриншот
    Дорогой пользователь! Огромная просьба, поблагодарите релизера, оцените раздачу и оставьте свои комментарий, если Вы скачали Бомбардировка через торрент бесплатно! Внесите свою лепту в развитие PiratBit!
    Комментировать посты могут только пользователи прошедшие не сложную регистрацию
    Показать сообщения:    

    Бомбардировка через торрент
    Скачать бесплатно Бомбардировка
    Бомбардировка скачать торрент
    Бомбардировка смотреть онлайн
    Cкачать фильм Бомбардировка бесплатно
    Бомбардировка скачать торрент в хорошем качестве
    Бомбардировка смотреть онлайн бесплатно в хорошем качестве


    Вы не можете начинать темы
    Вы не можете отвечать на сообщения
    Вы не можете редактировать свои сообщения
    Вы не можете удалять свои сообщения
    Вы не можете голосовать в опросах
    Вы не можете прикреплять файлы к сообщениям
    Вы можете скачивать файлы