Достать ножи: Стеклянная луковица

MVO

Добыча

Дубляж

Уэнсдэй

1 сезон

Тор

Дубляж

13 клиническая

1 сезон

Жестокая ночь

MVO

Одни из нас

1 сезон

Deluxe

pack

Рекомендуем

30

Пиратка

ВАЖНО

ВАЖНО

Ghostwire

Пиратка

jed

RePack

nioh2

RePack

RDR2

RePack

NEED FOR SPEED™ PAYBACK

RePack

скачать торрент

Кинопоиск HD

Острые козырьки 6 сезон

6 сезон

FAR CRY 6

RePack

скачать торрент

Лицензия

скачать торрент

MVO

1

1 сезон

скачать торрент

1 сезон

скачать торрент

Лицензия

  

Ловушка времени / Time Trap (Марк Деннис, Бен Фостер) [2017, Фантастика, боевик, приключения, UHD WEBRip 2160p] 2xMVO [Синема УС, HDRezka]

Ловушка времени через торрент piratbit.org

Размер: 19.58 GB | Добавлен: 4 года 2 мес. назад | Торрент скачан:184 раза
Смотреть онлайн | Скачать | Поддержите нас   

22-11-2018 10:56 Ловушка времени Скачать торрент  

Ловушка времени / Time Trap
Год выпуска: 2017
Страна: США
Жанр: Фантастика, боевик, приключения
Продолжительность: 01:27:32
Перевод:

Профессиональный (многоголосый, закадровый) | HDRezka
Любительский многоголосый | Синема УС

Субтитры: Русские Форсированные (для дороги HDRezka) [от Ash61] (включены по умолчанию), Форсированные (для дороги Синема УС) [от Ash61], английские (Full)

Режиссер: Марк Деннис, Бен Фостер

rating Семпл

В ролях:

Эндрю Уилсон, Макс Райт, Рич Скидмор, Рейли МакКлендон, Елена Диаз, Гопал Бидари, Кэссиди Гиффорд, Эстелла Перез, Крис Старджон, Ганс Марреро, Брианна Хоуи, Оливия Драгусевич

Описание:

Группа студентов оказывается в ловушке в таинственной пещере, внутри которой они обнаруживают, что время здесь течёт иначе.

Качество: UHD WEBRip 2160p
Формат: MKV

Видео: MPEG-4 AVC, High@L5.1, 8 bits, 29.2 Mбит/с, 3840x1624, 23.976 кадр/с
Аудио#1: Русский (AC3, 6 ch, 640 Кбит/с) / Профессиональный многоголосый (HDRezka), (перемонтаж - Ash61)
Аудио#2: Русский (AC3, 6 ch, 640 Кбит/с) / Любительский многоголосый (Синема УС), (адаптация из дороги Koshara- Ash61)
Аудио#3: Английский (DTS, 6 ch, 1509 Кбит/с)
скриншот  скриншот  скриншот  скриншот  скриншот  

General
Unique ID : 165690297539352503357277234145234209248 (0x7CA6CA61A6D7048F0C60D94F6D1F49E0)
Complete name : C:UsersPublicVideosSample VideosFilmyTime.Trap.2017.WEBRip.2160p.MediaClub.mkv
Format : Matroska
Format version : Version 4
File size : 19.6 GiB
Duration : 1 h 27 min
Overall bit rate : 32.0 Mb/s
Encoded date : UTC 2018-11-22 09:36:39
Writing application : mkvmerge v28.2.0 ('The Awakening') 64-bit
Writing library : libebml v1.3.6 + libmatroska v1.4.9
Cover : Yes
Attachments : cover.jpg

Video
ID : 1
Format : AVC
Format/Info : Advanced Video Codec
Format profile : High@L5.1
Format settings : CABAC / 5 Ref Frames
Format settings, CABAC : Yes
Format settings, RefFrames : 5 frames
Codec ID : V_MPEG4/ISO/AVC
Duration : 1 h 27 min
Bit rate : 29.2 Mb/s
Width : 3 840 pixels
Height : 1 624 pixels
Display aspect ratio : 2.35:1
Frame rate mode : Constant
Frame rate : 23.976 (24000/1001) FPS
Color space : YUV
Chroma subsampling : 4:2:0
Bit depth : 8 bits
Scan type : Progressive
Bits/(Pixel*Frame) : 0.195
Stream size : 17.9 GiB (91%)
Title : WEBRip.2160p by Silverok
Writing library : x264 core 157 r2935 545de2f
Encoding settings : cabac=1 / ref=5 / deblock=1:-3:-3 / analyse=0x3:0x133 / me=umh / subme=10 / psy=1 / psy_rd=1.00:0.15 / mixed_ref=1 / me_range=24 / chroma_me=1 / trellis=2 / 8x8dct=1 / cqm=0 / deadzone=21,11 / fast_pskip=1 / chroma_qp_offset=-3 / threads=42 / lookahead_threads=7 / sliced_threads=0 / nr=0 / decimate=1 / interlaced=0 / bluray_compat=0 / constrained_intra=0 / bframes=8 / b_pyramid=2 / b_adapt=2 / b_bias=0 / direct=3 / weightb=1 / open_gop=0 / weightp=2 / keyint=240 / keyint_min=24 / scenecut=40 / intra_refresh=0 / rc_lookahead=60 / rc=crf / mbtree=1 / crf=16.0 / qcomp=0.60 / qpmin=0 / qpmax=69 / qpstep=4 / ip_ratio=1.40 / aq=1:1.00
Default : Yes
Forced : No
Color range : Limited
Color primaries : BT.709
Transfer characteristics : BT.709
Matrix coefficients : BT.709

Audio #1
ID : 2
Format : AC-3
Format/Info : Audio Coding 3
Commercial name : Dolby Digital
Codec ID : A_AC3
Duration : 1 h 27 min
Bit rate mode : Constant
Bit rate : 640 kb/s
Channel(s) : 6 channels
Channel layout : L R C LFE Ls Rs
Sampling rate : 48.0 kHz
Frame rate : 31.250 FPS (1536 SPF)
Bit depth : 16 bits
Compression mode : Lossy
Delay relative to video : 460 ms
Stream size : 401 MiB (2%)
Title : Профессиональный многоголосый (HDRezka)
Language : Russian
Service kind : Complete Main
Default : Yes
Forced : No

Audio #2
ID : 3
Format : AC-3
Format/Info : Audio Coding 3
Commercial name : Dolby Digital
Codec ID : A_AC3
Duration : 1 h 27 min
Bit rate mode : Constant
Bit rate : 640 kb/s
Channel(s) : 6 channels
Channel layout : L R C LFE Ls Rs
Sampling rate : 48.0 kHz
Frame rate : 31.250 FPS (1536 SPF)
Bit depth : 16 bits
Compression mode : Lossy
Delay relative to video : 460 ms
Stream size : 401 MiB (2%)
Title : Любительский многоголосый (Синема УС)
Language : Russian
Service kind : Complete Main
Default : No
Forced : No

Audio #3
ID : 4
Format : DTS
Format/Info : Digital Theater Systems
Codec ID : A_DTS
Duration : 1 h 27 min
Bit rate mode : Constant
Bit rate : 1 509 kb/s
Channel(s) : 6 channels
Channel layout : C L R Ls Rs LFE
Sampling rate : 48.0 kHz
Frame rate : 93.750 FPS (512 SPF)
Bit depth : 24 bits
Compression mode : Lossy
Delay relative to video : 460 ms
Stream size : 946 MiB (5%)
Language : English
Default : No
Forced : No

Text #1
ID : 5
Format : UTF-8
Codec ID : S_TEXT/UTF8
Codec ID/Info : UTF-8 Plain Text
Duration : 1 h 24 min
Bit rate : 0 b/s
Count of elements : 13
Stream size : 558 Bytes (0%)
Title : Forced (HDRezka)
Language : Russian
Default : Yes
Forced : No

Text #2
ID : 6
Format : UTF-8
Codec ID : S_TEXT/UTF8
Codec ID/Info : UTF-8 Plain Text
Duration : 1 h 24 min
Bit rate : 1 b/s
Count of elements : 19
Stream size : 848 Bytes (0%)
Title : Forced (Синема УС)
Language : Russian
Default : No
Forced : No

Text #3
ID : 7
Format : UTF-8
Codec ID : S_TEXT/UTF8
Codec ID/Info : UTF-8 Plain Text
Duration : 1 h 20 min
Bit rate : 61 b/s
Count of elements : 1306
Stream size : 36.4 KiB (0%)
Title : Full
Language : English
Default : No
Forced : No




Скачать Ловушка времени через торрент http://img11.lostpic.net/2018/09/26/8b5b6d96660d008000681bfc3028f262.jpg Скачать, смотреть онлайн Ловушка времени бесплантно в хорошем качестве Описание: Группа студентов оказывается в ловушке в таинственной пещере, внутри которой они обнаруживают, что время здесь течёт ... 9.6 10 7
Торрент: Зарегистрирован [2018-11-22 10:56] · скачан: 184 раз
Статус: T временная
Размер: 19.58 GB
Как cкачать? Как скачать Ловушка времени через торрент | UTorrent

% Раздел Тема Автор DL S | L
Фильмы 2017 [DVDrip, WEB-DLRip, HDrip] (DUB, MVO) [ 1.42 GB ] Ловушка времени / Time Trap | Лицензия | BDRip Twi7ter Скачать
1 | 0
Фильмы 2017 [DVDrip, WEB-DLRip, HDrip] (DUB, MVO) [ 1.77 GB ] Ловушка времени / Time Trap | iTunes | BDRip-AVC bober100 Скачать
1 | 0
T Фильмы [HD 720p, 1080p] (Хороший звук DUB, MVO) [ 4.75 GB ] Ловушка времени / Time Trap | HDRezka Studio | 720p PROCTOLOG Скачать
1 | 0

28-11-2019 20:33  


Отключить вcю реклaмy на сайте, в т.ч. и в плеере онлайн просмотра!

25-11-2018 12:45 Ловушка времени Скачать торрент  

Хронометраж фильма уж очень подозрительно коротенький...



    Дорогой пользователь! Огромная просьба, поблагодарите релизера, оцените раздачу и оставьте свои комментарий, если Вы скачали Ловушка времени через торрент бесплатно!!
    Комментировать посты могут только пользователи прошедшие не сложную регистрацию
    Показать сообщения:    


    Ловушка времени через торрент
    Скачать бесплатно Ловушка времени
    Ловушка времени скачать торрент
    Ловушка времени смотреть онлайн
    Cкачать фильм Ловушка времени бесплатно
    Ловушка времени скачать торрент в хорошем качестве
    Ловушка времени смотреть онлайн бесплатно в хорошем качестве
    Вы не можете начинать темы
    Вы не можете отвечать на сообщения
    Вы не можете редактировать свои сообщения
    Вы не можете удалять свои сообщения
    Вы не можете голосовать в опросах
    Вы не можете прикреплять файлы к сообщениям
    Вы можете скачивать файлы
    Ловушка времени / Time Trap [2017, Фантастика, боевик, приключения, UHD WEBRip 2160p] 2xMVO [Синема УС, HDRezka] смотреть онлайн, скачать торрент picoco.icu