Достать ножи: Стеклянная луковица

MVO

Добыча

Дубляж

Уэнсдэй

1 сезон

Тор

Дубляж

13 клиническая

1 сезон

Жестокая ночь

MVO

Одни из нас

1 сезон

Deluxe

pack

Рекомендуем

30

Пиратка

ВАЖНО

ВАЖНО

Ghostwire

Пиратка

jed

RePack

nioh2

RePack

RDR2

RePack

NEED FOR SPEED™ PAYBACK

RePack

скачать торрент

Кинопоиск HD

Острые козырьки 6 сезон

6 сезон

FAR CRY 6

RePack

скачать торрент

Лицензия

скачать торрент

MVO

1

1 сезон

скачать торрент

1 сезон

скачать торрент

Лицензия

  

Кин / Kin (Джонатан Бэйкер, Джош Бэйкер) [2018, драма, боевик, фантастика, криминал, UHD BDRemux 2160p] Дубляж [iTunes]

Кин через торрент piratbit.org

Размер: 51.21 GB | Добавлен: 4 года 2 мес. назад | Торрент скачан:50 раз
Смотреть онлайн | Скачать | Поддержите нас   

23-11-2018 05:33 Кин Скачать торрент  

Кин / Kin«All He Needed Was a Way Out»
Год выпуска: 2018
Страна: США
Жанр: драма, боевик, фантастика, криминал
Продолжительность: 01:42:54
Перевод: Дублированный [iTunes]
Субтитры: Английские
Режиссер: Джонатан Бэйкер , Джош Бэйкер
В ролях:

Майлс Труитт (Eli Solinski), Джек Рейнор (Jimmy Solinski), Деннис Куэйд (Hal Solinski), Зои Кравиц (Milly), Джеймс Франко (Taylor Balik), Кэрри Кун (Morgan Hunter), Йен Мэтьюз (Snick), Гэвин Фокс (Dutch Balik), Стефан Гарно (Remy), Лукас Пенар (Big Man), Карли Беверли (Audrey), Лили Гао (Female Cleaner)
Описание:
Школьника Элая отстранили от занятий в школе, что, конечно же, не нравится его приемному отцу - невероятно честному человеку. И уж совсем тот не приходит в восторг, когда его родной сын возвращается из тюрьмы и сразу влипает в неприятности и долги. Всё это приводит к тому, что сводные братья пускаются в бега, а Элай прихватывает с собой инопланетное оружие, найденное им накануне в заброшенном доме.
Рейтинг:

MPAA: PG-13 - Детям до 13 лет просмотр не желателен
Качество: UHD BDRemux 2160p
Формат: MKV
Видео: HEVC HDR, 64700 Kбит/с, 3840x2160
Аудио 1: Русский (AC3, 6 ch, 384 Кбит/с)
Аудио 2: Aнглийский (DTS-HD MA, 8 ch, 6347 Кбит/c)
Навигация по главам: есть
General
Unique ID : 247630952121209186781354593600931487283 (0xBA4BFC90D13748715A0495CDDC79DE33)
Complete name : F:\Kin.2018.4k.hdR.bdremuX.216Op.werecut.PROD.mkv
Format : Matroska
Format version : Version 4
File size : 51.2 GiB
Duration : 1 h 42 min
Overall bit rate mode : Variable
Overall bit rate : 71.2 Mb/s
Movie name : Kin (2018) 4K OT werecut PROD.
Encoded date : UTC 2018-11-23 04:26:35
Writing application : mkvmerge v24.0.0 ('Beyond The Pale') 64-bit
Writing library : libebml v1.3.6 + libmatroska v1.4.9

Video
ID : 1
Format : HEVC
Format/Info : High Efficiency Video Coding
Commercial name : HDR10
Format profile : Main 10@L5.1@High
Codec ID : V_MPEGH/ISO/HEVC
Duration : 1 h 42 min
Bit rate : 64.7 Mb/s
Width : 3 840 pixels
Height : 2 160 pixels
Display aspect ratio : 16:9
Frame rate mode : Constant
Frame rate : 23.976 (24000/1001) FPS
Color space : YUV
Chroma subsampling : 4:2:0 (Type 2)
Bit depth : 10 bits
Bits/(Pixel*Frame) : 0.326
Stream size : 46.4 GiB (91%)
Language : English
Default : Yes
Forced : No
Color range : Limited
Color primaries : BT.2020
Transfer characteristics : PQ
Matrix coefficients : BT.2020 non-constant
Mastering display color pri : Display P3
Mastering display luminance : min: 0.0001 cd/m2, max: 1000 cd/m2
Maximum Content Light Level : 1000 cd/m2
Maximum Frame-Average Light : 689 cd/m2

Audio #1
ID : 2
Format : AC-3
Format/Info : Audio Coding 3
Commercial name : Dolby Digital
Codec ID : A_AC3
Duration : 1 h 42 min
Bit rate mode : Constant
Bit rate : 384 kb/s
Channel(s) : 6 channels
Channel layout : L R C LFE Ls Rs
Sampling rate : 48.0 kHz
Frame rate : 31.250 FPS (1536 SPF)
Bit depth : 16 bits
Compression mode : Lossy
Stream size : 283 MiB (1%)
Title : Дубляж - iTunes
Language : Russian
Service kind : Complete Main
Default : Yes
Forced : Yes

Audio #2
ID : 3
Format : DTS XLL X
Format/Info : Digital Theater Systems
Commercial name : DTS-HD Master Audio
Codec ID : A_DTS
Duration : 1 h 42 min
Bit rate mode : Variable
Bit rate : 6 347 kb/s
Channel(s) : 8 channels
Channel(s)_Original : Object Based
Channel layout : Object Based
Sampling rate : 48.0 kHz
Frame rate : 93.750 FPS (512 SPF)
Bit depth : 24 bits
Stream size : 4.55 GiB (9%)
Language : English
Default : No
Forced : No

Text #1
ID : 4
Format : UTF-8
Codec ID : S_TEXT/UTF8
Codec ID/Info : UTF-8 Plain Text
Duration : 1 h 34 min
Bit rate : 40 b/s
Count of elements : 1027
Stream size : 28.3 KiB (0%)
Title : Full
Language : English
Default : No
Forced : No

Text #2
ID : 5
Format : UTF-8
Codec ID : S_TEXT/UTF8
Codec ID/Info : UTF-8 Plain Text
Duration : 1 h 35 min
Bit rate : 48 b/s
Count of elements : 1292
Stream size : 34.3 KiB (0%)
Title : SDH
Language : English
Default : No
Forced : No

Text #3
ID : 6
Format : UTF-8
Codec ID : S_TEXT/UTF8
Codec ID/Info : UTF-8 Plain Text
Duration : 1 h 35 min
Bit rate : 106 b/s
Count of elements : 1292
Stream size : 74.9 KiB (0%)
Title : SDH-Colored
Language : English
Default : No
Forced : No

Menu
00:00:00.000 : en:Chapter 1
00:07:23.734 : en:Chapter 2
00:12:34.712 : en:Chapter 3
00:20:44.451 : en:Chapter 4
00:27:27.812 : en:Chapter 5
00:31:57.123 : en:Chapter 6
00:36:39.780 : en:Chapter 7
00:41:57.848 : en:Chapter 8
00:50:09.548 : en:Chapter 9
00:56:57.497 : en:Chapter 10
01:05:01.355 : en:Chapter 11
01:08:01.368 : en:Chapter 12
01:13:58.600 : en:Chapter 13
01:17:52.209 : en:Chapter 14
01:25:58.736 : en:Chapter 15
01:34:28.954 : en:Chapter 16



Скачать Кин через торрент https://a.radikal.ru/a29/1811/5d/a45000f769f1.jpg Скачать, смотреть онлайн Кин бесплантно в хорошем качестве Описание: Школьника Элая отстранили от занятий в школе, что, конечно же, не нравится его приемному отцу - невероятно честному человеку. И ... 10 10 4
Info! Золотая раздача, скачанное не засчитывается.
Торрент: Зарегистрирован [2018-11-23 05:33] · скачан: 50 раз
Статус: √ проверено
Размер: 51.21 GB
Как cкачать? Как скачать Кин через торрент | UTorrent

% Раздел Тема Автор DL S | L
Ultra HD (UHD: 2K, 4K, 8K) [ 52.15 GB ] Кин / Kin | DUB | 2160p sheker187 Скачать
1 | 0
Ultra HD (UHD: 2K, 4K, 8K) [ 60.23 GB ] Кин / Kin | iTunes | 2160p sheker187 Скачать
1 | 0
Фильмы (WEB-DL 720p, 1080p) [ 4.1 GB ] Кин / Kin | iTunes | 1080p sheker187 Скачать
1 | 0
Ultra HD (UHD: 2K, 4K, 8K) [ 20.19 GB ] Кин / Kin | iTunes | 2160p sheker187 Скачать
1 | 0
Фильмы 2018 [DVDrip, WEB-DLRip, HDrip] (DUB, MVO) [ 1.42 GB ] Кин / Kin | Лицензия | BDRip Twi7ter Скачать
1 | 0
Фильмы [HD 720p, 1080p] (Хороший звук DUB, MVO) [ 10.34 GB ] Кин / Kin | iTunes | 1080p -Lexx- Скачать
1 | 0

28-11-2019 20:33  


Отключить вcю реклaмy на сайте, в т.ч. и в плеере онлайн просмотра!

26-02-2022 11:06 Кин Скачать торрент  

Дайте скорости



    Дорогой пользователь! Огромная просьба, поблагодарите релизера, оцените раздачу и оставьте свои комментарий, если Вы скачали Кин через торрент бесплатно!!
    Комментировать посты могут только пользователи прошедшие не сложную регистрацию
    Показать сообщения:    


    Кин через торрент
    Скачать бесплатно Кин
    Кин скачать торрент
    Кин смотреть онлайн
    Cкачать фильм Кин бесплатно
    Кин скачать торрент в хорошем качестве
    Кин смотреть онлайн бесплатно в хорошем качестве
    Вы не можете начинать темы
    Вы не можете отвечать на сообщения
    Вы не можете редактировать свои сообщения
    Вы не можете удалять свои сообщения
    Вы не можете голосовать в опросах
    Вы не можете прикреплять файлы к сообщениям
    Вы можете скачивать файлы
    Кин / Kin [2018, драма, боевик, фантастика, криминал, UHD BDRemux 2160p] Дубляж [iTunes] смотреть онлайн, скачать торрент picoco.icu