Лицензия

MVO

1

1 сезон

Лицензия

Лицензия

13

MVO

1 сезон

Deluxe Edition

pack

Рекомендуем

30

Repack

ВАЖНО

ВАЖНО

Ghostwire

RePack

jed

RePack

fifa19

RePack

RDR2

RePack

NEED FOR SPEED™ PAYBACK

RePack

Кинопоиск HD

 Острые козырьки 6 сезон

6 сезон

FAR CRY 6

RePack

Лицензия

MVO

1

1 сезон

1 сезон

Лицензия

  

Горизонт (Иосиф Хейфиц) [1962, СССР, драма, SATRip от AVP Studio]

Горизонт через торрент piratbit.org

Раздают: 1 [ 0 KB/s ]
Размер: 1.09 GB | Добавлен: 3 года 9 мес. назад | Торрент скачан:43 раза
Смотреть онлайн Горизонт | Скачать   

28-11-2018 11:07 Горизонт Скачать торрент  

Горизонт
Страна: СССР
Производство: Ленфильм

Жанр: драма
Год выпуска: 1962
Продолжительность: 01:42:16

Перевод: Не требуется
Cубтитры: нет
Оригинальная аудиодорожка: русский

Режиссер: Иосиф Хейфиц

В ролях:
Юрий Толубеев, Борис Чирков, Алексей Сафонов, Светлана Мелкова, Людмила Долгорукова, Валерий Носик, Гелий Сысоев, М. Львова, Ирина Губанова, Вячеслав Подвиг, Николай Сергеев, Татьяна Доронина, Майя Булгакова, Павел Кашлаков, Лилия Гриценко...
Об актёрах подробней

Описание:
Двенадцать выпускников десятого «А» приезжают на целину. Избавляясь от детских иллюзий, вчерашние школьники привыкают к неустроенности быта, к тяжелому труду на комбайнах, тракторах, на току. Вскоре обнаруживаются другие сложности. Во время зарядивших дождей происходит первое столкновение коллектива с Сергеем Новоскольцевым (Алексей Сафонов).

Исходник: DVB
Качество видео: SATRip
Формат видео: AVI

Видео: 704x528 (4:3), 25,000 кадров/сек, XviD ~ 1322 kbps avg, 0.142 bit/pixel
Аудио: 48 kHz, Dolby Digital AC3 2.0, 192 kbps

Раздача от:
Общее
Полное имя : Gorizont.1962.SATRip_[New-team]_by_AVP_Studio.avi
Формат : AVI
Формат/Информация : Audio Video Interleave
Размер файла : 1,09 Гбайт
Продолжительность : 1 ч. 42 м.
Общий поток : 1525 Кбит/сек

Видео
Идентификатор : 0
Формат : MPEG-4 Visual
Профиль формата : Advanced Simple@L5
Настройки формата : BVOP1 / Custom Matrix
Параметр BVOP формата : 1
Параметр QPel формата : Нет
Параметр GMC формата : Без точки перехода
Параметр матрицы формата : Выборочная
Идентификатор кодека : XVID
Идентификатор кодека/Подсказка : XviD
Продолжительность : 1 ч. 42 м.
Битрейт : 1322 Кбит/сек
Ширина : 704 пикселя
Высота : 528 пикселей
Соотношение сторон : 4:3
Частота кадров : 25,000 кадров/сек
Цветовое пространство : YUV
Субдискретизация насыщенности : 4:2:0
Битовая глубина : 8 бит
Тип развёртки : Прогрессивная
Метод сжатия : С потерями
Бит/(Пиксели*Кадры) : 0.142
Размер потока : 966 Мбайт (87%)
Библиотека кодирования : XviD 73

Аудио
Идентификатор : 1
Формат : AC-3
Формат/Информация : Audio Coding 3
Коммерческое название : Dolby Digital
Идентификатор кодека : 2000
Продолжительность : 1 ч. 42 м.
Вид битрейта : Постоянный
Битрейт : 192 Кбит/сек
Каналы : 2 канала
Channel layout : L R
Частота : 48,0 КГц
Частота кадров : 31,250 кадров/сек (1536 SPF)
Битовая глубина : 16 бит
Метод сжатия : С потерями
Размер потока : 140 Мбайт (13%)
Выравнивание : Соединение по промежуткам
Продолжительность промежутка : 32 мс. (0,80 видеокадр)



Скачать Горизонт через торрент http://picplus.ru/img/1811/28/53bf7a8f.png Скачать, смотреть онлайн Горизонт бесплантно в хорошем качестве Описание:Двенадцать выпускников десятого «А» приезжают на целину. Избавляясь от детских иллюзий, вчерашние школьники привыкают к ... 5 10 1
Торрент: Зарегистрирован [2018-11-28 11:07] · скачан: 43 раз
Статус: √ проверено
Размер: 1.09 GB
Как cкачать? Как скачать Горизонт через торрент | UTorrent

% Раздел Тема Автор DL S | L
Кино СССР [ 1.09 GB ] Горизонт | | SATRip-AVC от AVP Studio AVP Studio Скачать
1 | 0

28-11-2019 20:33  

Отключить вcю реклaмy на сайте

    Дорогой пользователь! Огромная просьба, поблагодарите релизера, оцените раздачу и оставьте свои комментарий, если Вы скачали Горизонт через торрент бесплатно!!
    Комментировать посты могут только пользователи прошедшие не сложную регистрацию
    Показать сообщения:    


    Горизонт через торрент
    Скачать бесплатно Горизонт
    Горизонт скачать торрент
    Горизонт смотреть онлайн
    Cкачать фильм Горизонт бесплатно
    Горизонт скачать торрент в хорошем качестве
    Горизонт смотреть онлайн бесплатно в хорошем качестве
    Вы не можете начинать темы
    Вы не можете отвечать на сообщения
    Вы не можете редактировать свои сообщения
    Вы не можете удалять свои сообщения
    Вы не можете голосовать в опросах
    Вы не можете прикреплять файлы к сообщениям
    Вы можете скачивать файлы