Достать ножи: Стеклянная луковица

MVO

Добыча

Дубляж

Уэнсдэй

1 сезон

Тор

Дубляж

13 клиническая

1 сезон

Жестокая ночь

MVO

Одни из нас

1 сезон

Deluxe

pack

Рекомендуем

30

Пиратка

ВАЖНО

ВАЖНО

Ghostwire

Пиратка

jed

RePack

nioh2

RePack

RDR2

RePack

NEED FOR SPEED™ PAYBACK

RePack

скачать торрент

Кинопоиск HD

Острые козырьки 6 сезон

6 сезон

FAR CRY 6

RePack

скачать торрент

Лицензия

скачать торрент

MVO

1

1 сезон

скачать торрент

1 сезон

скачать торрент

Лицензия

  

Блэйд 2 / Blade II (Гильермо дель Торо) [2002, ужасы, боевик, триллер, UHD BDRemux 2160p] Дубляж + AVO [Д. Пучков]

Блэйд 2 через торрент piratbit.org

Размер: 58.44 GB | Добавлен: 4 года 2 мес. назад | Торрент скачан:17 раз
Смотреть онлайн | Скачать | Поддержите нас   

28-11-2018 11:41 Блэйд 2 Скачать торрент  

Блэйд 2 / Blade II«Let the combat begin»
Год выпуска: 2002
Страна: Германия, США
Жанр: ужасы, боевик, триллер, фэнтези
Продолжительность: 01:56:43
Перевод: Дублированный, авторский
Субтитры: Русские, английские
Режиссер: Гильермо дель Торо
В ролях:

Уэсли Снайпс (Blade), Крис Кристофферсон (Whistler), Рон Перлман (Reinhardt), Леонор Варела (Nyssa), Норман Ридус (Scud), Томас Кречман (Damaskinos), Люк Госс (Nomak), Мэтт Шульце (Chupa), Дэнни Джон-Джулс (Asad), Донни Йен (Snowman), Карел Роден (Kounen), Марит Велле Киле (Verlaine)
Описание:
Мир вампиров в ужасе от появления новой расы супер-кровососов. Именно благодаря этому легендарный Блэйд и его учитель Уистлер вынуждены объединиться со своими кровными врагами, Кровавой Стаей - элитным отрядом вампиров-воинов.
Рейтинг:

MPAA: R - Лицам до 17 лет обязательно присутствие взрослого
Качество: UHD BDRemux 2160p
Формат: MKV
Видео: HEVC HDR, 65 Mбит/с, 3840x2160
Аудио 1: Русский (AC3, 6 ch, 448 Кбит/с) - Дубляж
Аудио 2: Русский (AC3, 6 ch, 448 Кбит/с) - Д.Пучков (aka Goblin)
Аудио 3: Aнглийский (DTS-HD MA, 8 ch, 5811 Кбит/с)
Навигация по главам: есть
General
Unique ID : 65225372734815604919450613776246044820 (0x3111F3294370526F4902FB027886F894)
Complete name : D:\Video111\Blade.II.2002.BDREMUX.2160p.HDR.selezen.mkv
Format : Matroska
Format version : Version 4
File size : 58.4 GiB
Duration : 1 h 56 min
Overall bit rate mode : Variable
Overall bit rate : 71.7 Mb/s
Movie name : Blade II 2002 from селезень
Encoded date : UTC 2018-11-28 09:35:11
Writing application : mkvmerge v28.2.0 ('The Awakening') 64-bit
Writing library : libebml v1.3.6 + libmatroska v1.4.9

Video
ID : 1
Format : HEVC
Format/Info : High Efficiency Video Coding
Format profile : Main 10@L5.1@High
Codec ID : V_MPEGH/ISO/HEVC
Duration : 1 h 56 min
Bit rate : 65.0 Mb/s
Width : 3 840 pixels
Height : 2 160 pixels
Display aspect ratio : 16:9
Frame rate mode : Constant
Frame rate : 23.976 (24000/1001) FPS
Standard : PAL
Color space : YUV
Chroma subsampling : 4:2:0 (Type 2)
Bit depth : 10 bits
Bits/(Pixel*Frame) : 0.327
Stream size : 53.0 GiB (91%)
Language : English
Default : Yes
Forced : No
Color range : Limited
Color primaries : BT.2020
Transfer characteristics : PQ
Matrix coefficients : BT.2020 non-constant

Audio #1
ID : 2
Format : AC-3
Format/Info : Audio Coding 3
Commercial name : Dolby Digital
Codec ID : A_AC3
Duration : 1 h 56 min
Bit rate mode : Constant
Bit rate : 448 kb/s
Channel(s) : 6 channels
Channel layout : L R C LFE Ls Rs
Sampling rate : 48.0 kHz
Frame rate : 31.250 FPS (1536 SPF)
Bit depth : 16 bits
Compression mode : Lossy
Delay relative to video : 6 ms
Stream size : 374 MiB (1%)
Title : Дубляж
Language : Russian
Service kind : Complete Main
Default : Yes
Forced : Yes

Audio #2
ID : 3
Format : AC-3
Format/Info : Audio Coding 3
Commercial name : Dolby Digital
Codec ID : A_AC3
Duration : 1 h 50 min
Bit rate mode : Constant
Bit rate : 448 kb/s
Channel(s) : 6 channels
Channel layout : L R C LFE Ls Rs
Sampling rate : 48.0 kHz
Frame rate : 31.250 FPS (1536 SPF)
Bit depth : 16 bits
Compression mode : Lossy
Delay relative to video : 6 ms
Stream size : 354 MiB (1%)
Title : AVO
Language : Russian
Service kind : Complete Main
Default : No
Forced : No

Audio #3
ID : 4
Format : DTS XLL
Format/Info : Digital Theater Systems
Commercial name : DTS-HD Master Audio
Codec ID : A_DTS
Duration : 1 h 56 min
Bit rate mode : Variable
Bit rate : 5 811 kb/s
Channel(s) : 8 channels
Channel layout : C L R LFE Lb Rb Lss Rss
Sampling rate : 48.0 kHz
Frame rate : 93.750 FPS (512 SPF)
Bit depth : 24 bits
Compression mode : Lossless
Stream size : 4.74 GiB (8%)
Title : Original
Language : English
Default : No
Forced : No

Text #1
ID : 5
Format : UTF-8
Codec ID : S_TEXT/UTF8
Codec ID/Info : UTF-8 Plain Text
Duration : 1 h 48 min
Bit rate : 52 b/s
Count of elements : 817
Stream size : 41.9 KiB (0%)
Title : Full
Language : Russian
Default : No
Forced : No

Text #2
ID : 6
Format : UTF-8
Codec ID : S_TEXT/UTF8
Codec ID/Info : UTF-8 Plain Text
Duration : 1 h 48 min
Bit rate : 28 b/s
Count of elements : 677
Stream size : 22.4 KiB (0%)
Language : English
Default : No
Forced : No

Menu
00:00:00.000 : en:Blood Donors/Main Title
00:04:53.126 : en:Bike the Bullet
00:08:35.348 : en:Blood Lines
00:10:48.648 : en:"Detox"
00:16:50.635 : en:Suspicious Activity
00:23:02.881 : en:"Cancer With a Purpose"
00:27:40.367 : en:Healthy Skepticism
00:28:27.080 : en:Dealer Frenzy
00:29:53.875 : en:Leadership Training
00:33:17.621 : en:"The House of Pain"
00:51:53.527 : en:Immunity Challenge
00:55:13.435 : en:Mutant Misery
00:58:03.605 : en:Blood Bath
00:59:03.874 : en:Carrier Autopsy
01:03:19.754 : en:"Keep Your Enemies Closer"
01:08:04.414 : en:Daylight Hunting
01:14:20.247 : en:"Regroup"
01:18:41.717 : en:Collateral Damage
01:21:50.781 : en:Designing Vermin
01:31:59.222 : en:Thirst Quenching
01:37:52.742 : en:Prodigal Son
01:46:14.368 : en:Romantic Sunrise
01:48:18.450 : en:Loose End
01:49:03.954 : en:End Credits



Скачать Блэйд 2 через торрент https://b.radikal.ru/b09/1811/8b/00d4eb26ea6d.png Скачать, смотреть онлайн Блэйд 2 бесплантно в хорошем качестве Описание: Мир вампиров в ужасе от появления новой расы супер-кровососов. Именно благодаря этому легендарный Блэйд и его учитель Уистлер ... 9.9 10 9
Торрент: Зарегистрирован [2018-11-28 11:41] · скачан: 17 раз
Статус: √ проверено
Размер: 58.44 GB
Как cкачать? Как скачать Блэйд 2 через торрент | UTorrent

% Раздел Тема Автор DL S | L
Фильмы 2001-2005 [ 2.16 GB ] Блэйд 2 / Blade II | Дубляж | HDRip-AVC, Дубляж winchester00100010 Скачать
1 | 0
Фильмы [HD 720p, 1080p] (Хороший звук DUB, MVO) [ 7.76 GB ] Блэйд 2 / Blade II | Дубляж + Оригинал | 1080p, Дубляж + Оригинал Бумер Скачать
1 | 0
Фильмы 2001-2005 [ 745 MB ] Блэйд 2 / Blade 2 | | HDRip dexter lex Скачать
1 | 0
Фильмы 2001-2005 [ 2.18 GB ] Блэйд 1, 2, 3 / Blade 1, 2, 3 | | HDRip Venxxx Скачать
1 | 0
Фильмы 2001-2005 [ 2.18 GB ] Блэйд 2 / Blade II | | BDRip Andruuha Скачать
1 | 0

28-11-2019 20:33  


Отключить вcю реклaмy на сайте, в т.ч. и в плеере онлайн просмотра!

21-12-2018 05:00 Блэйд 2 Скачать торрент  

встаньте пожалуйста на раздачу



26-01-2021 06:28 Блэйд 2 Скачать торрент  

встаньте пожалуйста на раздачу



26-02-2021 13:50 Блэйд 2 Скачать торрент  

Раздайте,пожалуйста!



    Дорогой пользователь! Огромная просьба, поблагодарите релизера, оцените раздачу и оставьте свои комментарий, если Вы скачали Блэйд 2 через торрент бесплатно!!
    Комментировать посты могут только пользователи прошедшие не сложную регистрацию
    Показать сообщения:    


    Блэйд 2 через торрент
    Скачать бесплатно Блэйд 2
    Блэйд 2 скачать торрент
    Блэйд 2 смотреть онлайн
    Cкачать фильм Блэйд 2 бесплатно
    Блэйд 2 скачать торрент в хорошем качестве
    Блэйд 2 смотреть онлайн бесплатно в хорошем качестве
    Вы не можете начинать темы
    Вы не можете отвечать на сообщения
    Вы не можете редактировать свои сообщения
    Вы не можете удалять свои сообщения
    Вы не можете голосовать в опросах
    Вы не можете прикреплять файлы к сообщениям
    Вы можете скачивать файлы
    Блэйд 2 / Blade II [2002, ужасы, боевик, триллер, UHD BDRemux 2160p] Дубляж + AVO [Д. Пучков] смотреть онлайн, скачать торрент picoco.icu