2 сезон

iTunes

WEBRip

1

2 сезон

iTunes

1 сезон

1 сезон

RePack

30

Новинка

ВАЖНО

ИГРА 18+

pack

RePack

MK11
pack

Легкие деньги

RePack

jed

RePack

fifa19

RePack

RDR2

RePack

NEED FOR SPEED™ PAYBACK

4 сезон

9 сезон

Бесстыжие 9 сезон

Все сериалы

все сериалы на PB.wtf

RePack

FAR CRY 5

Anonymous, доброй ночи, мы не успеваем собрать деньги на оплату серверов за февраль, помогите нам пожалуйста в это трудное время. В качестве благодарности мы отключим Вам всю рекламу на сайте (укажите свой ник в строку Ваше имя)!

×
  
Magnet ссылка

Человек на Луне / First Man (Дэмьен Шазелл) [2018 г., драма, биография, история, WEBRip 1080p] [Ukr DUB] piratbit.org

Человек на Луне через торрент piratbit.org

Размер: 3.56 GB | Добавлен: 2 года 3 мес. назад | Торрент скачан:71 раз
Скачать  

30-11-2018 14:38 Человек на Луне Скачать торрент  

Человек на Луне / First Man
Год выпуска: 2018
Страна: США
Жанр: драма, биография, история
Продолжительность: 02:20:52
Перевод: Украинский (дублированный)
Субтитры: вшитые

Режиссер: Дэмьен Шазелл


В ролях: Клер Фой, Райан Гослинг, Пабло Шрайбер, Кристофер Эбботт, Итэн Эмбри, Киаран Хайндс, Джейсон Кларк, Кайл Чандлер, Кори Столл, Шей Уигэм Судьба любит смельчаков, а Нил Армстронг однозначно принадлежит к их числу. Весь мир знает его имя, но мало кому известно, какой ценой астронавту дался маленький шаг, ставший огромным скачком для всего человечества.

rating

Качество: WEBRip 1080p
Формат видео: MKV
Видео кодек: AVC
Аудио кодек: AC3
Видео: AVC, 1920x800 (2.40:1), 30.000 fps, 3 233 kb/s
Аудио 1: 48 kHz, AC3 Dolby Digital, 2 ch, ~192 kbps - Ukr
Аудио 2: 48 kHz, AC3 Dolby Digital, 2 ch, ~192 kbps - Eng
General
Unique ID : 223097067227018089702907973401120009873 (0xA7D6EEA67A4CD1989915A02E9B1AEE91)
Complete name : First.Man.2018.1080p.WEBRip.Ukr.Eng.mkv
Format : Matroska
Format version : Version 4
File size : 3.56 GiB
Duration : 2 h 20 min
Overall bit rate : 3 619 kb/s
Encoded date : UTC 2018-11-30 11:07:27
Writing application : mkvmerge v8.3.0 ('Over the Horizon') 64bit
Writing library : libebml v1.3.1 + libmatroska v1.4.2

Video
ID : 1
Format : AVC
Format/Info : Advanced Video Codec
Format profile : High@L4.1
Format settings : CABAC / 4 Ref Frames
Format settings, CABAC : Yes
Format settings, ReFrames : 4 frames
Codec ID : V_MPEG4/ISO/AVC
Duration : 2 h 20 min
Bit rate : 3 233 kb/s
Width : 1 920 pixels
Height : 800 pixels
Display aspect ratio : 2.40:1
Frame rate mode : Constant
Frame rate : 30.000 FPS
Color space : YUV
Chroma subsampling : 4:2:0
Bit depth : 8 bits
Scan type : Progressive
Bits/(Pixel*Frame) : 0.070
Stream size : 3.18 GiB (89%)
Language : English
Default : Yes
Forced : No
Color range : Limited
Color primaries : BT.709
Transfer characteristics : BT.709
Matrix coefficients : BT.709

Audio #1
ID : 2
Format : AC-3
Format/Info : Audio Coding 3
Commercial name : Dolby Digital
Codec ID : A_AC3
Duration : 2 h 20 min
Bit rate mode : Constant
Bit rate : 192 kb/s
Channel(s) : 2 channels
Channel layout : L R
Sampling rate : 48.0 kHz
Frame rate : 31.250 FPS (1536 SPF)
Bit depth : 16 bits
Compression mode : Lossy
Delay relative to video : 21 ms
Stream size : 193 MiB (5%)
Title : LeDoyen
Language : Ukrainian
Service kind : Complete Main
Default : Yes
Forced : No

Audio #2
ID : 3
Format : AC-3
Format/Info : Audio Coding 3
Commercial name : Dolby Digital
Codec ID : A_AC3
Duration : 2 h 20 min
Bit rate mode : Constant
Bit rate : 192 kb/s
Channel(s) : 2 channels
Channel layout : L R
Sampling rate : 48.0 kHz
Frame rate : 31.250 FPS (1536 SPF)
Bit depth : 16 bits
Compression mode : Lossy
Delay relative to video : 21 ms
Stream size : 193 MiB (5%)
Language : English
Service kind : Complete Main
Default : No
Forced : No
скриншот  скриншот  скриншот  
piratbit.org



Скачать Человек на Луне через торрент https://i3.imageban.ru/out/2018/11/30/71320b266078033a8ed86297de6537c9.png Скачать фильм Человек на Луне через торрент бесплантно в хорошем качестве В ролях: Клер Фой, Райан Гослинг, Пабло Шрайбер, Кристофер Эбботт, Итэн Эмбри, Киаран Хайндс, Джейсон Кларк, Кайл Чандлер, Кори Столл, Шей ... 9.3 10 7
Торрент: Зарегистрирован [2018-11-30 14:38] · скачан: 71 раз
Статус: T временная
Размер: 3.56 GB
Как cкачать? Как скачать Человек на Луне через торрент | UTorrent

% Раздел Тема Автор DL S | L
Фильмы (Blu-ray, BD-Remux, HDDVD) [ 44.74 GB ] Человек на Луне / First Man [2018 биография история Blu-ray EUR 1080p] [IMAX Edition] DUB [] bober100 Скачать
1 | 0
Фильмы 2018 [DVDrip, WEB-DLRip, HDrip] (DUB, MVO) [ 1.46 GB ] Человек на Луне / First Man [2018 биография история BDRip] - [] Twi7ter Скачать
1 | 0
Фильмы 2018 [DVDrip, WEB-DLRip, HDrip] (DUB, MVO) [ 4.07 GB ] Человек на Луне / First Man [2018 биография история BDRip-AVC] - ExKinoRay Enigma2010 Скачать
1 | 0
Фильмы [HD 720p, 1080p] (Хороший звук DUB, MVO) [ 7.72 GB ] Человек на Луне / First Man [2018 биография история BDRip-HEVC 1080p ] [IMAX Edition] DUB [] bober100 Скачать
1 | 0
Фильмы [HD 720p, 1080p] (Хороший звук DUB, MVO) [ 7.46 GB ] Человек на Луне / First Man [2018 биография история BDRip 720p] [IMAX Edition] DUB [] bober100 Скачать
1 | 0
Фильмы [HD 720p, 1080p] (Хороший звук DUB, MVO) [ 14.54 GB ] Человек на Луне / First Man [2018 биография история BDRip 1080p] [IMAX Edition] DUB [] bober100 Скачать
1 | 0
Фильмы (Blu-ray, BD-Remux, HDDVD) [ 32.4 GB ] Человек на Луне / First Man [2018 биография история BD Remux 1080p] [IMAX Edition] DUB [] bober100 Скачать
1 | 0


Последний раз редактировалось: killermax2013 (2018-11-30 15:09), всего редактировалось 1 раз

28-11-2019 20:33  

Отключить всю рекламу на сайте

30-11-2018 15:04 Человек на Луне Скачать торрент  

описание фильма "Хищник"piratbit.org



30-11-2018 15:10 Человек на Луне Скачать торрент  

АццкийПадонак писал(а):

описание фильма "Хищник"

исправлено piratbit.org



30-11-2018 16:29 Человек на Луне Скачать торрент  

Интересно, а почему отдельный раздел только для фильмов с украинским озвучанием? Почему не с Казахским, Грузинским, Армянским, Белорусским или любым другим?piratbit.org



05-12-2018 15:16 Человек на Луне Скачать торрент  

506327 писал(а):

Интересно, а почему отдельный раздел только для фильмов с украинским озвучанием? Почему не с Казахским, Грузинским, Армянским, Белорусским или любым другим?

может потому что казахи грузины и тд смотрят с русским переводом в кино ?? (не точно). украинский перевод существенно отличается от русского так как в укр база слов больше !piratbit.org



09-12-2018 10:43 Человек на Луне Скачать торрент  

piratbit.org



    Дорогой пользователь! Огромная просьба, поблагодарите релизера, оцените раздачу и оставьте свои комментарий, если Вы скачали Человек на Луне через торрент бесплатно! Внесите свою лепту в развитие PiratBit!
    Комментировать посты могут только пользователи прошедшие не сложную регистрацию
    Показать сообщения:    

    Человек на Луне через торрент
    Скачать бесплатно Человек на Луне
    Человек на Луне скачать торрент
    Человек на Луне смотреть онлайн
    Cкачать фильм Человек на Луне бесплатно
    Человек на Луне скачать торрент в хорошем качестве
    Человек на Луне смотреть онлайн бесплатно в хорошем качестве


    Вы не можете начинать темы
    Вы не можете отвечать на сообщения
    Вы не можете редактировать свои сообщения
    Вы не можете удалять свои сообщения
    Вы не можете голосовать в опросах
    Вы не можете прикреплять файлы к сообщениям
    Вы можете скачивать файлы