iTunes

Хэллоуин

iTunes

venom

iTunes

Тайна дома с часами

iTunes

Лицензия

Агент Джонни Инглиш 3.0

iTunes

Ничего хорошего в отеле «Эль рояль»

iTunes

Братья Систерс Хит недели

ИГРА 18+

pack

RePack

Battlefield V

RePack

Assassins Creed: Odyssey
pack

RePack

Darksiders 3

iTunes 4K

venom Хит недели

RePack

fifa19

!!Акция!!

Alien_RageХит недели

RePack

NEED FOR SPEED™ PAYBACK

SATRip

9 сезон

Бесстыжие 9 сезон

Все сериалы

все сериалы на PB.wtf

iTunes

Мэнди

RePack

FAR CRY 5
  

Фердинанд / Ferdinand (Карлос Салдана) [2017, семейный, комедия, мультфильм, BDRip-HEVC 1080p, (10bit) 60 fps] DUB (rus, ukr) [Лицензия]

Фердинанд через торрент

Раздают: 5 [ 178 KB/s ]
Размер: 5.82 GB | Добавлен: 1 мес. 20 д. назад | Торрент скачан:121 раз
Скачать  

30-11-2018 21:30 Фердинанд Скачать торрент  

Фердинанд / Ferdinand
Год выпуска: 2017
Страна: США
Жанр: семейный, комедия, мультфильм
Продолжительность: 01:48:12
Перевод: Дублированный | Лицензия
Субтитры: Russian (Full), Ukrainian (Full), English (Full, SDH)

Режиссер: Карлос Салдана

rating


В ролях:

Джон Сина, Кейт МакКиннон, Дэвид Теннант, Бобби Каннавале, Энтони Андерсон, Джек Гор, Джет Юргенсмейер, Найл Диас, Колин Х. Мерфи, Карлос Салдана

Описание:

Фердинанд - самый добродушный бык во всей Испании. Несмотря на внушительные размеры и недюжинную силу, он с детства предпочитал сидеть на лужайке и любоваться цветами вместо того, чтобы бодаться с другими быками. По нелепой случайности Фердинанд был выбран среди других соплеменников для участия в бое быков в Мадриде.

Фердинанду предстоит отстоять свои миролюбивые убеждения и напомнить нам о том, что даже перед лицом трудностей главное - остаться собой. Ведь только так и можно изменить мир вокруг.

Качество: BDRip-HEVC 1080p / 60 FPS by Cryptor (исходник BDRemux 1080p)
Формат: MKV

Видео: HEVC, 1920x804 (2.40:1), ~5 813 Кбит/сек, 60.000 кадр/сек, 10 bit
Аудио#1: 48 kHz, DTS, 5.1, 768 Kbps | Дублированный | RUS |
Аудио#2: 48 kHz, AC3, 5.1, 448 Kbps | Дублированный | UKR |
Аудио#3: 48 kHz, AC3, 5.1, 640 Kbps | Оригинал | ENG |
- H.265/HEVC (High Efficiency Video Coding) - это новый стандарт кодирования видео.
- Стандарт H.265/HEVC является логическим продолжением стандарта H.264/AVC (Advanced Video Coding), и характеризуется более эффективными алгоритмами сжатия, а также поддержкой высокого разрешения вплоть до 8K UHD (8192x4320). Первая версия стандарта H.265 была опубликована в начале 2013 года.
- Рипы в фомате HEVC поддерживается не всеми аппаратными проигрывателями.
- Для корректного воспроизведения может потребоваться обновление ПО.
- Владельцам несовместимого железа просьба не беспокоить, есть альтернативные релизы.

скриншот  скриншот  скриншот  скриншот  скриншот  

General
Unique ID : 13187493196498342102394803878234493272 (0x9EBD19D211E62321BA1271543B51158)
Complete name : D:TorrentsFerdinand.(2017).BDRip.1080p.FullHD.60FPS.HEVC.[Cryptor].mkv
Format : Matroska
Format version : Version 4 / Version 2
File size : 5.82 GiB
Duration : 1 h 48 min
Overall bit rate : 7 704 kb/s
Movie name : Фердинанд / Ferdinand (2017)
Encoded date : UTC 2018-04-07 13:46:01
Writing application : mkvmerge v22.0.0 ('At The End Of The World') 64-bit
Writing library : libebml v1.3.5 + libmatroska v1.4.8
Cover : Yes
Attachments : Cover.jpg

Video
ID : 1
Format : HEVC
Format/Info : High Efficiency Video Coding
Format profile : Main 10@L4.1@Main
Codec ID : V_MPEGH/ISO/HEVC
Duration : 1 h 48 min
Bit rate : 5 813 kb/s
Width : 1 920 pixels
Height : 804 pixels
Display aspect ratio : 2.40:1
Frame rate mode : Constant
Frame rate : 60.000 FPS
Color space : YUV
Chroma subsampling : 4:2:0
Bit depth : 10 bits
Bits/(Pixel*Frame) : 0.063
Stream size : 4.39 GiB (75%)
Title : Ferdinand.(2017).BDRip.1080p.FullHD.60FPS.HEVC.[Cryptor]
Writing library : x265 2.6+37-1949157705ce:[Windows][GCC 6.3.0][64 bit] 10bit
Encoding settings : cpuid=1050111 / frame-threads=3 / numa-pools=8 / wpp / no-pmode / no-pme / no-psnr / no-ssim / log-level=2 / input-csp=1 / input-res=1920x804 / interlace=0 / total-frames=389556 / level-idc=0 / high-tier=1 / uhd-bd=0 / ref=4 / no-allow-non-conformance / no-repeat-headers / annexb / no-aud / no-hrd / info / hash=0 / no-temporal-layers / open-gop / min-keyint=25 / keyint=250 / gop-lookahead=0 / bframes=4 / b-adapt=2 / b-pyramid / bframe-bias=0 / rc-lookahead=40 / lookahead-slices=5 / scenecut=40 / radl=0 / no-intra-refresh / ctu=64 / min-cu-size=8 / no-rect / no-amp / max-tu-size=32 / tu-inter-depth=1 / tu-intra-depth=1 / limit-tu=0 / rdoq-level=0 / dynamic-rd=0.00 / no-ssim-rd / signhide / no-tskip / nr-intra=0 / nr-inter=0 / no-constrained-intra / strong-intra-smoothing / max-merge=2 / limit-refs=3 / no-limit-modes / me=1 / subme=7 / merange=57 / temporal-mvp / weightp / no-weightb / no-analyze-src-pics / deblock=0:0 / sao / no-sao-non-deblock / rd=3 / no-early-skip / rskip / no-fast-intra / no-tskip-fast / no-cu-lossless / no-b-intra / no-splitrd-skip / rdpenalty=0 / psy-rd=2.00 / psy-rdoq=0.00 / no-rd-refine / no-lossless / cbqpoffs=0 / crqpoffs=0 / rc=crf / crf=18.0 / qcomp=0.60 / qpstep=4 / stats-write=0 / stats-read=0 / ipratio=1.40 / pbratio=1.30 / aq-mode=1 / aq-strength=1.00 / cutree / zone-count=0 / no-strict-cbr / qg-size=32 / no-rc-grain / qpmax=69 / qpmin=0 / no-const-vbv / sar=1 / overscan=0 / videoformat=5 / range=0 / colorprim=1 / transfer=1 / colormatrix=1 / chromaloc=0 / display-window=0 / max-cll=0,0 / min-luma=0 / max-luma=1023 / log2-max-poc-lsb=8 / vui-timing-info / vui-hrd-info / slices=1 / no-opt-qp-pps / no-opt-ref-list-length-pps / no-multi-pass-opt-rps / scenecut-bias=0.05 / no-opt-cu-delta-qp / no-aq-motion / no-hdr / no-hdr-opt / no-dhdr10-opt / analysis-reuse-level=5 / scale-factor=0 / refine-intra=0 / refine-inter=0 / refine-mv=0 / no-limit-sao / ctu-info=0 / no-lowpass-dct / refine-mv-type=0 / copy-pic=1
Default : Yes
Forced : No
Color range : Limited
Color primaries : BT.709
Transfer characteristics : BT.709
Matrix coefficients : BT.709

Audio #1
ID : 2
Format : DTS
Format/Info : Digital Theater Systems
Codec ID : A_DTS
Duration : 1 h 48 min
Bit rate mode : Constant
Bit rate : 768 kb/s
Channel(s) : 6 channels
Channel positions : Front: L C R, Side: L R, LFE
Sampling rate : 48.0 kHz
Frame rate : 93.750 FPS (512 SPF)
Bit depth : 24 bits
Compression mode : Lossy
Stream size : 594 MiB (10%)
Title : | Дублированный |
Language : Russian
Default : Yes
Forced : No

Audio #2
ID : 3
Format : AC-3
Format/Info : Audio Coding 3
Codec ID : A_AC3
Duration : 1 h 48 min
Bit rate mode : Constant
Bit rate : 448 kb/s
Channel(s) : 6 channels
Channel positions : Front: L C R, Side: L R, LFE
Sampling rate : 48.0 kHz
Frame rate : 31.250 FPS (1536 SPF)
Bit depth : 16 bits
Compression mode : Lossy
Stream size : 347 MiB (6%)
Title : | Дублированный |
Language : Ukrainian
Service kind : Complete Main
Default : No
Forced : No

Audio #3
ID : 4
Format : AC-3
Format/Info : Audio Coding 3
Codec ID : A_AC3
Duration : 1 h 48 min
Bit rate mode : Constant
Bit rate : 640 kb/s
Channel(s) : 6 channels
Channel positions : Front: L C R, Side: L R, LFE
Sampling rate : 48.0 kHz
Frame rate : 31.250 FPS (1536 SPF)
Bit depth : 16 bits
Compression mode : Lossy
Delay relative to video : 32 ms
Stream size : 495 MiB (8%)
Title : | Original |
Language : English
Service kind : Complete Main
Default : No
Forced : No

Text #1
ID : 5
Format : UTF-8
Codec ID : S_TEXT/UTF8
Codec ID/Info : UTF-8 Plain Text
Duration : 1 h 46 min
Bit rate : 53 b/s
Count of elements : 1147
Stream size : 41.6 KiB (0%)
Title : Full
Language : Russian
Default : No
Forced : No

Text #2
ID : 6
Format : UTF-8
Codec ID : S_TEXT/UTF8
Codec ID/Info : UTF-8 Plain Text
Duration : 1 h 46 min
Bit rate : 70 b/s
Count of elements : 1152
Stream size : 54.8 KiB (0%)
Title : Full
Language : Ukrainian
Default : No
Forced : No

Text #3
ID : 7
Format : UTF-8
Codec ID : S_TEXT/UTF8
Codec ID/Info : UTF-8 Plain Text
Duration : 1 h 35 min
Bit rate : 45 b/s
Count of elements : 1237
Stream size : 32.1 KiB (0%)
Title : Full
Language : English
Default : No
Forced : No

Text #4
ID : 8
Format : UTF-8
Codec ID : S_TEXT/UTF8
Codec ID/Info : UTF-8 Plain Text
Duration : 1 h 43 min
Bit rate : 58 b/s
Count of elements : 1812
Stream size : 43.9 KiB (0%)
Title : SDH
Language : English
Default : No
Forced : No

Text #5
ID : 9
Format : PGS
Muxing mode : zlib
Codec ID : S_HDMV/PGS
Codec ID/Info : Picture based subtitle format used on BDs/HD-DVDs
Duration : 1 h 46 min
Bit rate : 24.7 kb/s
Count of elements : 2310
Stream size : 18.8 MiB (0%)
Title : Full
Language : Russian
Default : No
Forced : No

Text #6
ID : 10
Format : PGS
Muxing mode : zlib
Codec ID : S_HDMV/PGS
Codec ID/Info : Picture based subtitle format used on BDs/HD-DVDs
Duration : 1 h 46 min
Bit rate : 26.3 kb/s
Count of elements : 2304
Stream size : 20.1 MiB (0%)
Title : Full
Language : Ukrainian
Default : No
Forced : No

Text #7
ID : 11
Format : PGS
Muxing mode : zlib
Codec ID : S_HDMV/PGS
Codec ID/Info : Picture based subtitle format used on BDs/HD-DVDs
Duration : 1 h 43 min
Bit rate : 40.2 kb/s
Count of elements : 3660
Stream size : 29.6 MiB (0%)
Title : SDH
Language : English
Default : No
Forced : No

Menu
00:00:00.000 : en:Chapter 1
00:03:37.800 : en:Chapter 2
00:08:10.281 : en:Chapter 3
00:11:51.460 : en:Chapter 4
00:16:23.524 : en:Chapter 5
00:24:14.870 : en:Chapter 6
00:28:30.458 : en:Chapter 7
00:34:03.124 : en:Chapter 8
00:37:53.187 : en:Chapter 9
00:40:54.160 : en:Chapter 10
00:44:55.359 : en:Chapter 11
00:49:15.994 : en:Chapter 12
00:53:27.245 : en:Chapter 13
00:59:40.952 : en:Chapter 14
01:03:20.671 : en:Chapter 15
01:06:23.270 : en:Chapter 16
01:09:19.822 : en:Chapter 17
01:12:18.917 : en:Chapter 18
01:17:33.940 : en:Chapter 19
01:20:55.058 : en:Chapter 20
01:25:33.837 : en:Chapter 21
01:30:38.391 : en:Chapter 22
01:36:01.839 : en:Chapter 23
01:38:01.166 : en:Chapter 24




Скачать Фердинанд через торрент http://i104.fastpic.ru/big/2018/0408/24/3868df85dfe8a0a9e0b32eebdb814e24.jpg Скачать фильм Фердинанд через торрент бесплантно в хорошем качестве Описание: Фердинанд - самый добродушный бык во всей Испании. Несмотря на внушительные размеры и недюжинную силу, он с детства предпочитал ... 9.9 10 8
Торрент: Зарегистрирован [2018-11-30 21:30] · скачан: 121 раз
Статус: √ проверено
Размер: 5.82 GB
Как cкачать? Как скачать Фердинанд через торрент | qTorrent

% Раздел Тема Автор DL S | L
Фильмы [HD 720p, 1080p] (Хороший звук DUB, MVO) [ 15.28 GB ] Фердинанд и Каролина / Ferdinando e Carolina [1999 история BDRip 1080p by msltel] MVO msltel Скачать
2 | 0
Фильмы [HD 720p, 1080p] (Хороший звук DUB, MVO) [ 5.95 GB ] Фердинанд и Каролина / Ferdinando e Carolina [1999 история BDRip 720p by msltel] MVO msltel Скачать
1 | 0
Ultra HD (UHD: 2K, 4K, 8K) [ 23.61 GB ] Фердинанд / Ferdinand [2017 мультфильм UHD WEBRip 2160p] DUB [] bober100 Скачать
2 | 0
Зарубежные Мультфильмы (BDRip 1080p, 720p, Blu-ray, BD-Remux) [ 9.57 GB ] Фердинанд / Ferdinand [2017 мультфильм BDRip 1080p] DUB [] bober100 Скачать
9 | 0
Иностранные мультфильмы [ 2.18 GB ] Фердинанд / Ferdinand [2017 мультфильм BDRip] - [] Twi7ter Скачать
92 | 1
Зарубежные Мультфильмы (BDRip 1080p, 720p, Blu-ray, BD-Remux) [ 24.79 GB ] Фердинанд / Ferdinand [2017 мультфильм BD Remux 1080p] DUB [] bober100 Скачать
3 | 0
Иностранные мультфильмы [ 1.46 GB ] Фердинанд / Ferdinand [2017 мультфильм BDRip] - [] Twi7ter Скачать
122 | 0


>> Регистрируемся здесь <<






Отзывы и комментарии о схеме читаем и пишем здесь: ---> Отзывы и комментарии о схеме

Новые благодарочки в телеграм довольных пользователей:
скриншот   скриншот   скриншот   скриншот   скриншот
    Дорогой пользователь! Огромная просьба, поблагодарите релизера, оцените раздачу и оставьте свои комментарий, если Вы скачали Фердинанд через торрент бесплатно! Внесите свою лепту в развитие PiratBit!
    Комментировать посты могут только пользователи прошедшие не сложную регистрацию
    Показать сообщения:    

    Фердинанд через торрент
    Скачать бесплатно Фердинанд
    Фердинанд скачать торрент
    Фердинанд смотреть онлайн
    Cкачать фильм Фердинанд бесплатно
    Фердинанд скачать торрент в хорошем качестве
    Фердинанд смотреть онлайн бесплатно в хорошем качестве


    Вы не можете начинать темы
    Вы не можете отвечать на сообщения
    Вы не можете редактировать свои сообщения
    Вы не можете удалять свои сообщения
    Вы не можете голосовать в опросах
    Вы не можете прикреплять файлы к сообщениям
    Вы можете скачивать файлы