Ребята, если до конца года каждый наш пользователь пожертвует хотя бы 10 рублей, нам хватит денег оплатить все наши расходы.

iTunes

iTunes

Миссия невыполнима: Последствия

iTunes

Поиск

4 сезон

дом

MVO

venom

iTunes

Багровая мята

iTunes

Проклятие монахини

iTunes

Человек на Луне Хит недели

ИГРА 18+

pack

RePack

Battlefield V Хит недели

RePack

Assassins Creed: Odyssey
pack

RePack

Darksiders 3

iTunes 4K

Миссия невыполнима: Последствия

RePack

fifa19

!!Акция!!

Alien_RageХит недели

RePack

NEED FOR SPEED™ PAYBACK

SATRip

9 сезон

Бесстыжие 9 сезон

Все сериалы

все сериалы на PB.wtf

iTunes

Мэнди

RePack

FAR CRY 5
  

Летящие сквозь ночь / Nightflyers / Сезон: 1 / Серия: 1-6 из 10 (Эндрю МакКарти, Майк Кэхилл, Мэгги Кили) [2018, ужасы, фантастика, WEBRip 720p] [MVO] (GostFilm)

Летящие сквозь ночь через торрент

Качают: 1 [ 0 KB/s ]
Размер: 4.45 GB | Добавлен: 3 д. назад | Торрент скачан:1 раз
Скачать  

02-12-2018 08:51 Летящие сквозь ночь Скачать торрент  

Летящие сквозь ночь / Nightflyers
Год выпуска: 2018
Страна: США
Жанр: ужасы, фантастика
Продолжительность: ~00:54:00
Перевод: Любительский (многоголосый закадровый) GostFilm
Субтитры: английские

Режиссёр: Эндрю МакКарти, Майк Кэхилл, Мэгги Кили

В ролях: Джоди Смит, Гретхен Мол, Оуэн Мэкен, Дэвид Аджала, Энгус Сэмпсон, Сэм Страйк, Майя Эшет, Брайан Ф. О`Бирн, Филлип Риз

Описание: История о группе исследователей, которые отправляются на далекую планету, чтобы найти загадочное существо, но в пути сталкиваются с другими опасностями.

rating

Качество: WEBRip 720p
Формат: MKV
Видео кодек: AVC
Аудио кодек: AC3
Видео: 1280x720 (16:9), 23.976 fps, ~1300 kbps
Аудио: AC3, 48000Hz, 2Ch, 192 Kbps
General
Unique ID : 58133559889850473128051596040559461194 (0x2BBC1DCADAD6A2689750539556FD034A)
Complete name : E:\Nightflyers.S01.720p.GostFilm\Nightflyers.S01E01.720p.GostFilm.mkv
Format : Matroska
Format version : Version 4 / Version 2
File size : 613 MiB
Duration : 58 min 20 s
Overall bit rate : 1 470 kb/s
Encoded date : UTC 2018-12-01 22:20:05
Writing application : mkvmerge v22.0.0 ('At The End Of The World') 64-bit
Writing library : libebml v1.3.5 + libmatroska v1.4.8

Video
ID : 1
Format : AVC
Format/Info : Advanced Video Codec
Format profile : High@L3.1
Format settings : CABAC / 5 Ref Frames
Format settings, CABAC : Yes
Format settings, RefFrames : 5 frames
Codec ID : V_MPEG4/ISO/AVC
Duration : 58 min 20 s
Bit rate : 1 249 kb/s
Width : 1 280 pixels
Height : 720 pixels
Display aspect ratio : 16:9
Frame rate mode : Constant
Frame rate : 23.976 (24000/1001) FPS
Color space : YUV
Chroma subsampling : 4:2:0
Bit depth : 8 bits
Scan type : Progressive
Bits/(Pixel*Frame) : 0.057
Stream size : 521 MiB (85%)
Default : Yes
Forced : No
Color range : Limited
Color primaries : BT.709
Transfer characteristics : BT.709
Matrix coefficients : BT.709

Audio
ID : 2
Format : AC-3
Format/Info : Audio Coding 3
Format settings, Endianness : Big
Codec ID : A_AC3
Duration : 58 min 20 s
Bit rate mode : Constant
Bit rate : 192 kb/s
Channel(s) : 2 channels
Channel positions : Front: L R
Sampling rate : 44.1 kHz
Frame rate : 28.711 FPS (1536 SPF)
Bit depth : 16 bits
Compression mode : Lossy
Stream size : 80.1 MiB (13%)
Title : GostFilm
Service kind : Complete Main
Default : Yes
Forced : Yes

Text
ID : 3
Format : UTF-8
Codec ID : S_TEXT/UTF8
Codec ID/Info : UTF-8 Plain Text
Title : SDH
Language : English
Default : No
Forced : No
скриншот   скриншот   скриншот   скриншот  
Внимание! Раздача ведётся путём добавления новых серий; при каждом добавлении создётся новый торрент. Чтобы начать докачку новой серии, пользователям необходимо сделать следующее:
Остановить скачивание.
Удалить старый торрент у себя из клиента (старые серии удалять не надо).
Скачать новый торрент и запустить его у себя в клиенте вместо старого, при этом указать клиенту путь в старую папку куда и должно происходить скачивание новых серий.

Ваш клиент при этом должен произвести хеширование (проверку) старой папки (если не производит сам - помогите ему сделать это), и будет докачивать только те серии которых у вас ещё нет. Старые серии при этом не удаляются, а продолжают раздаваться!
Eсли вы уже удалили старые серии, то предотвратить повторную закачку старых серий можно, отжав галочку в соответсвующих местах при запуске нового торрента. По возможности, желательно не удалять старые серии как можно дольше чтобы релизёр не столько продолжал раздавать старые серии, а смог сконцентрироваться на новых.



Скачать Летящие сквозь ночь через торрент https://i108.fastpic.ru/big/2018/1201/51/e4cc2ac2c096269fbd2549d2496db051.jpg Скачать фильм Летящие сквозь ночь через торрент бесплантно в хорошем качестве Описание: История о группе исследователей, которые отправляются на далекую планету, чтобы найти загадочное существо, но в пути сталкиваются ... 9.5 10 2
Торрент: Зарегистрирован [2018-12-10 20:44] · скачан: 1 раз
Статус: √ проверено
Размер: 4.45 GB
Как cкачать? Как скачать Летящие сквозь ночь через торрент | qTorrent

% Раздел Тема Автор DL S | L
Зарубежные сериалы [ 7.93 GB ] Летящие сквозь ночь / Nightflyers / Сезон: 1 / Серия: 1-6 из 10 [2018 WEBRip 720p] [DVO] killermax2013 Скачать
3 | 0
Зарубежные сериалы [ 2.88 GB ] Летящие сквозь ночь / Nightflyers / Сезон: 1 / Серия: 1-6 из 10 [2018 WEBRip] [MVO] killermax2013 Скачать
2 | 1


Последний раз редактировалось: killermax2013 (2018-12-10 20:48), всего редактировалось 4 раз(а)


>> Регистрируемся здесь <<






Отзывы и комментарии о схеме читаем и пишем здесь: ---> Отзывы и комментарии о схеме

Новые благодарочки в телеграм довольных пользователей:
скриншот   скриншот   скриншот   скриншот   скриншот

02-12-2018 09:24 Летящие сквозь ночь Скачать торрент  

ребяты, кто смотрел уже? если дж.мартин тут руку приложил, следует ли ожидать что все помрут?)



02-12-2018 09:54 Летящие сквозь ночь Скачать торрент  

tamburetko писал(а):

ребяты, кто смотрел уже? если дж.мартин тут руку приложил, следует ли ожидать что все помрут?)

все померли на 5-ой минуте 1-ой серии



    Дорогой пользователь! Огромная просьба, поблагодарите релизера, оцените раздачу и оставьте свои комментарий, если Вы скачали Летящие сквозь ночь через торрент бесплатно! Внесите свою лепту в развитие PiratBit!
    Комментировать посты могут только пользователи прошедшие не сложную регистрацию
    Показать сообщения:    

    Летящие сквозь ночь через торрент
    Скачать бесплатно Летящие сквозь ночь
    Летящие сквозь ночь скачать торрент
    Летящие сквозь ночь смотреть онлайн
    Cкачать фильм Летящие сквозь ночь бесплатно
    Летящие сквозь ночь скачать торрент в хорошем качестве
    Летящие сквозь ночь смотреть онлайн бесплатно в хорошем качестве


    Вы не можете начинать темы
    Вы не можете отвечать на сообщения
    Вы не можете редактировать свои сообщения
    Вы не можете удалять свои сообщения
    Вы не можете голосовать в опросах
    Вы не можете прикреплять файлы к сообщениям
    Вы можете скачивать файлы