1 сезон

3 сезон

iTunes

1

iTunes

DUB Netflix

iTunes

13

1 сезон

RePack

30

Deluxe

pack

Легкие деньги

ВАЖНО

ИГРА 18+

pack

RePack

MK11

RePack

jed

RePack

fifa19

RePack

RDR2

RePack

NEED FOR SPEED™ PAYBACK

4 сезон

9 сезон

Бесстыжие 9 сезон

Все сериалы

все сериалы на PB.wtf

RePack

FAR CRY 5

Anonymous, доброй ночи, мы не успеваем до 1 числа собрать деньги на оплату серверов, помогите нам пожалуйста в это трудное время. В качестве благодарности мы отключим Вам всю рекламу на сайте (укажите свой ник в строку Ваше имя)!

×
  
Magnet ссылка

Полицейский с Рублёвки / Сезон: 4 / Серии: 1-8 из 8 (Илья Куликов) [2018, драма, комедия, WEB-DLRip] piratbit.org

Полицейский с Рублёвки через торрент piratbit.org

Раздают: 1 [ 0 KB/s ]
Размер: 3.85 GB | Добавлен: 2 года 6 мес. назад | Торрент скачан:1809 раз
Скачать  

03-12-2018 08:26 Полицейский с Рублёвки Скачать торрент  

Полицейский с Рублёвки Год выпуска: 2018
Страна: Россия
Жанр: драма, комедия
Продолжительность: ~ 00:50:00
Субтитры: отсутствуют

Режиссер: Илья Куликов



В ролях:

Александр Петров, Сергей Бурунов, София Каштанова, Александра Бортич, Татьяна Бабенкова, Роман Попов, Ростислав Гулбис, Сергей Штатнов, Светлана Суханова, Ирина Вилкова

Описание:

Грише Измайлову и его начальнику Владимиру Яковлеву противостоит преступный гений, который решил сделать жизнь рублёвских обитателей невыносимой. Прежде спокойный и безопасный район теперь задыхается от беззакония, злодей посягнул даже на оплот правопорядка — отдел полиции «Барвиха». В борьбе с преступником полицейские решают применить своё тайное оружие: умения и таланты следователя Игоря Мухича.

Качество: WEB-DLRip
Формат: AVI

Видео: XviD, ~ 1266 Кбит/с, 720x304
Аудио: AC3, 2 ch, 128 Кбит/с
скриншот   скриншот   скриншот   скриншот   скриншот   скриншот   скриншот  
скриншот  

Общее
Полное имя : D:\Politseyskiy.s.Rublevki.S04.2018.WEB-DLRip.25Kuzmich\Politseyskiy.s.Rublevki.s04.e01.WEB-DLRip.25Kuzmich.avi
Формат : AVI
Формат/Информация : Audio Video Interleave
Размер файла : 475 Мбайт
Продолжительность : 47 м. 18 с.
Общий поток : 1404 Кбит/сек
Библиотека кодирования : VirtualDub build 30080/release

Видео
Идентификатор : 0
Формат : MPEG-4 Visual
Профиль формата : Advanced Simple@L5
Параметр BVOP формата : 2
Параметр QPel формата : Нет
Параметр GMC формата : Без точки перехода
Параметр матрицы формата : Default (MPEG)
Режим смешивания : Сжатый битовый поток
Идентификатор кодека : XVID
Идентификатор кодека/Подсказка : XviD
Продолжительность : 47 м. 18 с.
Битрейт : 1266 Кбит/сек
Ширина : 720 пикселей
Высота : 304 пикселя
Соотношение сторон : 2,35:1
Частота кадров : 25,000 кадров/сек
Цветовое пространство : YUV
Субдискретизация насыщенности : 4:2:0
Битовая глубина : 8 бит
Тип развёртки : Прогрессивная
Метод сжатия : С потерями
Бит/(Пиксели*Кадры) : 0.231
Размер потока : 428 Мбайт (90%)
Библиотека кодирования : XviD 73

Аудио
Идентификатор : 1
Формат : AC-3
Формат/Информация : Audio Coding 3
Расширение режима : CM (complete main)
Параметр Endianness формата : Big
Идентификатор кодека : 2000
Продолжительность : 47 м. 18 с.
Вид битрейта : Постоянный
Битрейт : 128 Кбит/сек
Каналы : 1 канал
Расположение каналов : Front: C
Частота : 48,0 КГц
Частота кадров : 31,250 кадров/сек (1536 spf)
Метод сжатия : С потерями
Размер потока : 43,3 Мбайт (9%)
Выравнивание : Соединение по промежуткам
Продолжительность промежутка : 40 мс. (1,00 видеокадр)
Время предзагрузки промежутка : 512 мс.

Когда раздача ведётся путём добавления новых серий, при каждом добавлении создётся новый торрент. Чтобы начать докачку новой серии, пользователям необходимо сделать следующее:
(1) остановить скачивание,
(2) удалить старый торрент у себя из клиента (старые серии удалять не надо),
(3) скачать новый торрент и запустить его у себя в клиенте вместо старого, при этом указать клиенту путь в старую папку, куда и должно происходить скачивание новых серий.
Ваш клиент при этом должен произвести хеширование (проверку) старой папки (если не производит сам - помогите ему сделать это), и будет докачивать только те серии, которых у вас ещё нет. Старые серии при этом не удаляются, а продолжают раздаваться!
Eсли вы уже удалили старые серии, то предотвратить повторную закачку старых серий можно, отжав галочку в соответсвующих местах при запуске нового торрента. По возможности, желательно не удалять старые серии как можно дольше, чтобы релизёр не столько продолжал раздавать старые серии, а смог сконцентрироваться на новых.
piratbit.org



Скачать Полицейский с Рублёвки через торрент http://img14.lostpic.net/2018/12/03/5c4d31b3e91cd3099eb391c2ac504ae0.jpg Скачать фильм Полицейский с Рублёвки через торрент бесплантно в хорошем качестве Описание: Грише Измайлову и его начальнику Владимиру Яковлеву противостоит преступный гений, который решил сделать жизнь рублёвских ... 9.8 10 65
Info! Золотая раздача, скачанное не засчитывается.
Торрент: Зарегистрирован [2018-12-10 08:21] · скачан: 1 809 раз
Статус: √ проверено
Размер: 3.85 GB
Как cкачать? Как скачать Полицейский с Рублёвки через торрент | UTorrent

% Раздел Тема Автор DL S | L
TNT serials [ 9.75 GB ] Полицейский с Рублёвки / Сезон: 4 / Серии: 1-8 из 8 [2018 WEB-DL 720p] bober100 Скачать
1 | 0
TNT serials [ 13.67 GB ] Полицейский с Рублёвки / Сезон: 4 / Серии: 1-8 из 8 [2018 WEB-DL 1080p] bober100 Скачать
3 | 0
TNT serials [ 4.73 GB ] Полицейский с Рублёвки / Сезон: 4 / Серии: 1-8 из 8 [2018 WEBRip-AVC] bober100 Скачать
1 | 0


Последний раз редактировалось: bober100 (2018-12-10 08:21), всего редактировалось 1 раз

28-11-2019 20:33  

Отключить всю рекламу на сайте

    Дорогой пользователь! Огромная просьба, поблагодарите релизера, оцените раздачу и оставьте свои комментарий, если Вы скачали Полицейский с Рублёвки через торрент бесплатно! Внесите свою лепту в развитие PiratBit!
    Комментировать посты могут только пользователи прошедшие не сложную регистрацию
    Показать сообщения:    

    Полицейский с Рублёвки через торрент
    Скачать бесплатно Полицейский с Рублёвки
    Полицейский с Рублёвки скачать торрент
    Полицейский с Рублёвки смотреть онлайн
    Cкачать фильм Полицейский с Рублёвки бесплатно
    Полицейский с Рублёвки скачать торрент в хорошем качестве
    Полицейский с Рублёвки смотреть онлайн бесплатно в хорошем качестве


    Вы не можете начинать темы
    Вы не можете отвечать на сообщения
    Вы не можете редактировать свои сообщения
    Вы не можете удалять свои сообщения
    Вы не можете голосовать в опросах
    Вы не можете прикреплять файлы к сообщениям
    Вы можете скачивать файлы