iTunes

Хэллоуин

iTunes

venom

iTunes

Тайна дома с часами

iTunes

Лицензия

Агент Джонни Инглиш 3.0

iTunes

Ничего хорошего в отеле «Эль рояль»

iTunes

Братья Систерс Хит недели

ИГРА 18+

pack

RePack

Battlefield V

RePack

Assassins Creed: Odyssey
pack

RePack

Darksiders 3

iTunes 4K

venom Хит недели

RePack

fifa19

!!Акция!!

Alien_RageХит недели

RePack

NEED FOR SPEED™ PAYBACK

SATRip

9 сезон

Бесстыжие 9 сезон

Все сериалы

все сериалы на PB.wtf

iTunes

Мэнди

RePack

FAR CRY 5
  

Связь / Bo chi tung wah (Бенни Чан) [2008, боевик, криминал, триллер, BDRip 1080p by msltel] VO

Связь через торрент

Размер: 9.81 GB | Добавлен: 1 мес. 17 д. назад | Торрент скачан:2 раза
Скачать  

04-12-2018 07:00 Связь Скачать торрент  

Название: Связь
Оригинальное название: Bo chi tung wah
Год выпуска: 2008
Страна: Китай, Гонконг
Жанр: боевик, криминал, триллер
Продолжительность: 01:50:35
Перевод: закадровый одноголосый

Режиссер: Бенни Чан
В ролях: Луис Ку, Барби Сюй, Ник Чун, Лю Е, Сю-Вонг Фан, Сиу-Фай Чунг, Гун Бэйби, Карлос Чан, Флора Чан, Анки Байльке

О фильме: Грейс Вон — дизайнер. Однажды утром её похищают и запирают в сарае. Случайно там находится разбитый телефон, и наугад набранный номер оказывается номером обычного парня по имени Боб. И именно Боб становится спасательной соломинкой Грейс...



Качество: BDRip 1080p
Формат: MKV
Видео: MPEG-4 AVC, 11 Mбит/с, 1920x816
Аудио 1: русский, AC3, 192 kbps, 2 ch, 48 kHz [закадровый одноголосый, mantis]
Аудио 2: китайский, DTS, 1509 kbps, 6 ch, 48 kHz [оригинал]
Субтитры: английские
Главы/чаптеры
Общее
Уникальный идентификатор : 228562599857288699097240009304365131456 (0xABF38E36C4F89F3790377113A53CE6C0)
Полное имя : D:\Video\Связь.2008.BDRip 1080p by msltel.mkv
Формат : Matroska
Версия формата : Version 4
Размер файла : 9,81 Гбайт
Продолжительность : 1 ч. 50 м.
Общий поток : 12,7 Мбит/сек
Название фильма : Rip by msltel
Дата кодирования : UTC 2018-12-03 16:47:05
Программа кодирования : mkvmerge v8.2.0 ('World of Adventure') 64bit
Библиотека кодирования : libebml v1.3.1 + libmatroska v1.4.2

Видео
Идентификатор : 1
Формат : AVC
Формат/Информация : Advanced Video Codec
Профиль формата : High@L4.1
Настройки формата : CABAC / 4 Ref Frames
Параметр CABAC формата : Да
Параметр RefFrames формата : 4 кадра
Идентификатор кодека : V_MPEG4/ISO/AVC
Продолжительность : 1 ч. 50 м.
Битрейт : 11,0 Мбит/сек
Ширина : 1920 пикселей
Высота : 816 пикселей
Соотношение сторон : 2,35:1
Режим частоты кадров : Постоянный
Частота кадров : 24,000 кадра/сек
Цветовое пространство : YUV
Субдискретизация насыщенности : 4:2:0
Битовая глубина : 8 бит
Тип развёртки : Прогрессивная
Бит/(Пиксели*Кадры) : 0.293
Размер потока : 8,50 Гбайт (87%)
Библиотека кодирования : x264 core 155 r2901 7d0ff22
Настройки программы : cabac=1 / ref=4 / deblock=1:-3:-2 / analyse=0x3:0x113 / me=umh / subme=11 / psy=1 / psy_rd=1.00:0.15 / mixed_ref=1 / me_range=32 / chroma_me=1 / trellis=2 / 8x8dct=1 / cqm=0 / deadzone=21,11 / fast_pskip=0 / chroma_qp_offset=-3 / threads=6 / lookahead_threads=1 / sliced_threads=0 / nr=0 / decimate=1 / interlaced=0 / bluray_compat=0 / constrained_intra=0 / bframes=6 / b_pyramid=2 / b_adapt=2 / b_bias=0 / direct=1 / weightb=1 / open_gop=0 / weightp=2 / keyint=230 / keyint_min=23 / scenecut=40 / intra_refresh=0 / rc_lookahead=40 / rc=crf / mbtree=1 / crf=19.0 / qcomp=0.60 / qpmin=0 / qpmax=69 / qpstep=4 / vbv_maxrate=62500 / vbv_bufsize=78125 / crf_max=0.0 / nal_hrd=none / filler=0 / ip_ratio=1.40 / aq=1:1.00
Язык : Chinese
Default : Да
Forced : Нет

Аудио #1
Идентификатор : 2
Формат : AC-3
Формат/Информация : Audio Coding 3
Коммерческое название : Dolby Digital
Идентификатор кодека : A_AC3
Продолжительность : 1 ч. 50 м.
Вид битрейта : Постоянный
Битрейт : 192 Кбит/сек
Каналы : 2 канала
Channel layout : L R
Частота : 48,0 КГц
Частота кадров : 31,250 кадров/сек (1536 SPF)
Битовая глубина : 16 бит
Метод сжатия : С потерями
Размер потока : 152 Мбайт (2%)
Заголовок : mantis
Язык : Russian
ServiceKind/String : Complete Main
Default : Да
Forced : Нет

Аудио #2
Идентификатор : 3
Формат : DTS
Формат/Информация : Digital Theater Systems
Идентификатор кодека : A_DTS
Продолжительность : 1 ч. 50 м.
Вид битрейта : Постоянный
Битрейт : 1509 Кбит/сек
Каналы : 6 каналов
Channel layout : C L R Ls Rs LFE
Частота : 48,0 КГц
Частота кадров : 93,750 кадра/сек (512 SPF)
Битовая глубина : 16 бит
Метод сжатия : С потерями
Размер потока : 1,17 Гбайт (12%)
Заголовок : original
Язык : Chinese
Default : Нет
Forced : Нет

Текст
Идентификатор : 4
Формат : UTF-8
Идентификатор кодека : S_TEXT/UTF8
Идентификатор кодека/Информация : UTF-8 Plain Text
Продолжительность : 1 ч. 44 м.
Битрейт : 38 бит/сек
ElementCount : 1152
Размер потока : 29,5 Кбайт (0%)
Заголовок : английские
Язык : English
Default : Нет
Forced : Нет

Меню
00:00:00.000 : en:00:00:00.000
00:05:04.417 : en:00:05:04.417
00:09:09.667 : en:00:09:09.667
00:15:09.583 : en:00:15:09.583
00:22:45.125 : en:00:22:45.125
00:28:00.875 : en:00:28:00.875
00:34:48.958 : en:00:34:48.958
00:41:17.833 : en:00:41:17.833
00:47:18.917 : en:00:47:18.917
00:53:41.625 : en:00:53:41.625
01:01:50.292 : en:01:01:50.292
01:08:29.083 : en:01:08:29.083
01:14:14.625 : en:01:14:14.625
01:18:41.083 : en:01:18:41.083
01:30:14.708 : en:01:30:14.708
01:36:01.333 : en:01:36:01.333
01:40:14.208 : en:01:40:14.208
01:46:02.125 : en:01:46:02.125



Скачать Связь через торрент https://d.radikal.ru/d30/1812/bb/d2e5ffefaf2b.png Скачать фильм Связь через торрент бесплантно в хорошем качестве О фильме: Грейс Вон — дизайнер. Однажды утром её похищают и запирают в сарае. Случайно там находится разбитый телефон, и наугад набранный ... 5 10 1
Info! Золотая раздача, скачанное не засчитывается.
Торрент: Зарегистрирован [2018-12-04 07:00] · скачан: 2 раз
Статус: √ проверено
Размер: 9.81 GB
Как cкачать? Как скачать Связь через торрент | qTorrent

% Раздел Тема Автор DL S | L
Азиатские фильмы [ 3.83 GB ] Связь / Bo chi tung wah [2008 BDRip 720p by msltel] VO msltel Скачать
1 | 1


>> Регистрируемся здесь <<






Отзывы и комментарии о схеме читаем и пишем здесь: ---> Отзывы и комментарии о схеме

Новые благодарочки в телеграм довольных пользователей:
скриншот   скриншот   скриншот   скриншот   скриншот
    Дорогой пользователь! Огромная просьба, поблагодарите релизера, оцените раздачу и оставьте свои комментарий, если Вы скачали Связь через торрент бесплатно! Внесите свою лепту в развитие PiratBit!
    Комментировать посты могут только пользователи прошедшие не сложную регистрацию
    Показать сообщения:    

    Связь через торрент
    Скачать бесплатно Связь
    Связь скачать торрент
    Связь смотреть онлайн
    Cкачать фильм Связь бесплатно
    Связь скачать торрент в хорошем качестве
    Связь смотреть онлайн бесплатно в хорошем качестве


    Вы не можете начинать темы
    Вы не можете отвечать на сообщения
    Вы не можете редактировать свои сообщения
    Вы не можете удалять свои сообщения
    Вы не можете голосовать в опросах
    Вы не можете прикреплять файлы к сообщениям
    Вы можете скачивать файлы