ВНИМАНИЕ!!! Роскомнадзор заблокировал адрес piratbit.org в РФ навсегда просба перейти на piratbit.top или воспользоваться обходом блокировки

MVO

30

iTunes

Фантастические твари: Преступления Грин-де-Вальда

iTunes

1

Лицензия

гринч

iTunes

Две королевы

Лицензия

Крид 2 Хит недели

iTunes

Аквамен

iTunes

Ральф против интернета Хит недели

ИГРА 18+

pack

ВАЖНО

!!Акция!!

Alien_RageХит недели

RePack

Resident Evil 21
pack

RePack

Metro:Exodus

!!Акция!!

Alien_Rage

RePack

fifa19

RePack

Assassins Creed: Odyssey

RePack

NEED FOR SPEED™ PAYBACK

3 сезон

9 сезон

Бесстыжие 9 сезон

Все сериалы

все сериалы на PB.wtf

RePack

FAR CRY 5
Ребята, заказали программисту написание приложения для обхода блокировок на все популярные браузеры, нужно денег ему заплатить, Выручайте кто сколько может.
  

Южный Парк / South Park / Сезон: 22 / Серии: 1-10 из 10 (Трей Паркер, Мэтт Стоун, Эрик Сточ) [2018, мультсериал, комедия, сатира, WEB-DL 1080p] DVO [Кубик в Кубе] piratbit.org

Южный Парк через торрент piratbit.org

Размер: 6.23 GB | Добавлен: 3 мес. 1 д. назад | Торрент скачан:39 раз
Скачать  

05-12-2018 14:52 Южный Парк Скачать торрент  

Южный Парк / South Park Год выпуска: 2018
Страна: США
Жанр: мультсериал, комедия, сатира
Продолжительность: ~00:22:00
Перевод: Профессиональный (двухголосый закадровый) | Кубик в Кубе
Субтитры: Английские (SDH)

Режиссёры: Трей Паркер, Мэтт Стоун, Эрик Сточ

В ролях::

Трей Паркер, Мэтт Стоун, Мона Маршалл, Айзек Хейз, Эйприл Стюарт, Элиза Шнайдер, Мэри Кэй Бергман, Эдриан Бирд, Дженнифер Хауэлл, Кайл Маккаллок и др.

Описание:

Южный Парк / South Park — американский мультсериал, созданный Мэттом Стоуном и Треем Паркером. Иногда название переводится также как «Саут-Парк» или «Саус-Парк». Выпускается кабельным телеканалом Comedy Central с 1997 года. Основу сюжета составляют приключения четырёх мальчиков и их друзей, живущих в маленьком городке Саут-Парк, штат Колорадо. Сериал высмеивает недостатки американской культуры и текущие мировые события, а также подвергает критике множество глубоких убеждений и табу посредством пародии и чёрного юмора. «Южный Парк» выходит поздно вечером и позиционируется как мультфильм для взрослых.




Качество: AMZN WEB-DL 1080p
Контейнер: MKV
Видео: 1920x1080, 23.976 fps, MPEG-4 AVC, ~2789 kbps, 0.056 bits/pixel
Аудио#1 Rus: 48 kHz, AC3, 2/0 (L,R) ch, 192 kbps | Кубик в Кубе
Аудио#2 Eng: 48 kHz, E-AC3, 2/0 (L,R) ch, 224 kbps
Очистка от рекламы и подготовка релиза: ad3wal3
General
Unique ID : 224679303980955218600128208587211824940 (0xA907A8F1F72A7277AC3C4DFF438A5F2C)
Complete name : I:\South.Park.S22E01.AMZN.WEBRip.1080p.KvK.mkv
Format : Matroska
Format version : Version 4 / Version 2
File size : 508 MiB
Duration : 22 min 7 s
Overall bit rate : 3 208 kb/s
Encoded date : UTC 2018-10-03 17:20:13
Writing application : mkvmerge v8.3.0 ('Over the Horizon') 32bit
Writing library : libebml v1.3.1 + libmatroska v1.4.2
Attachments : poster.jpg

Video
ID : 1
Format : AVC
Format/Info : Advanced Video Codec
Format profile : High@L4
Format settings, CABAC : Yes
Format settings, ReFrames : 4 frames
Codec ID : V_MPEG4/ISO/AVC
Duration : 22 min 7 s
Bit rate : 2 789 kb/s
Width : 1 920 pixels
Height : 1 080 pixels
Display aspect ratio : 16:9
Frame rate mode : Constant
Frame rate : 23.976 (24000/1001) FPS
Color space : YUV
Chroma subsampling : 4:2:0
Bit depth : 8 bits
Scan type : Progressive
Bits/(Pixel*Frame) : 0.056
Stream size : 441 MiB (87%)
Language : English
Default : Yes
Forced : No
Color range : Limited
Color primaries : BT.709
Transfer characteristics : BT.709
Matrix coefficients : BT.709

Audio #1
ID : 2
Format : AC-3
Format/Info : Audio Coding 3
Format settings, Endianness : Big
Codec ID : A_AC3
Duration : 22 min 7 s
Bit rate mode : Constant
Bit rate : 192 kb/s
Channel(s) : 2 channels
Channel positions : Front: L R
Sampling rate : 48.0 kHz
Frame rate : 31.250 FPS (1536 spf)
Bit depth : 16 bits
Compression mode : Lossy
Stream size : 30.4 MiB (6%)
Title : Кубик в Кубе
Language : Russian
Service kind : Complete Main
Default : Yes
Forced : No

Audio #2
ID : 3
Format : E-AC-3
Format/Info : Enhanced Audio Coding 3
Format settings, Endianness : Big
Codec ID : A_EAC3
Duration : 22 min 7 s
Bit rate mode : Constant
Bit rate : 224 kb/s
Channel(s) : 2 channels
Channel positions : Front: L R
Sampling rate : 48.0 kHz
Frame rate : 187.500 FPS (256 spf)
Compression mode : Lossy
Stream size : 35.4 MiB (7%)
Language : English
Service kind : Complete Main
Default : No
Forced : No

Text
ID : 4
Format : UTF-8
Codec ID : S_TEXT/UTF8
Codec ID/Info : UTF-8 Plain Text
Duration : 22 min 1 s
Bit rate : 115 b/s
Count of elements : 576
Stream size : 18.6 KiB (0%)
Title : SDH
Language : English
Default : No
Forced : No
Внимание! Раздача ведётся путём добавления новых серий; при каждом добавлении создаётся новый торрент. Чтобы начать докачку новой серии, пользователям необходимо сделать следующее:
(1) остановить скачивание,
(2) удалить старый торрент у себя из клиента (старые серии удалять не надо),
(3) скачать новый торрент и запустить его у себя в клиенте вместо старого, при этом указать клиенту путь в старую папку куда и должно происходить скачивание новых серий.
Ваш клиент при этом должен произвести хеширование (проверку) старой папки (если не производит сам - помогите ему сделать это), и будет докачивать только те серии которых у вас ещё нет. Старые серии при этом не удаляются, а продолжают раздаваться!
Eсли вы уже удалили старые серии, то предотвратить повторную закачку старых серий можно, отжав галочку в соответствующих местах при запуске нового торрента. По возможности, желательно не удалять старые серии как можно дольше чтобы релизёр не столько продолжал раздавать старые серии, а смог сконцентрироваться на новых.
piratbit.org



Скачать Южный Парк через торрент http://i108.fastpic.ru/big/2018/1222/e0/af3569922d840bdcbb4677b38851a0e0.jpg Скачать фильм Южный Парк через торрент бесплантно в хорошем качестве Описание: Южный Парк / South Park — американский мультсериал, созданный Мэттом Стоуном и Треем Паркером. Иногда название переводится также ... 10 10 2
Торрент: Зарегистрирован [2018-12-24 06:10] · скачан: 39 раз
Статус: √ проверено
Размер: 6.23 GB
Как cкачать? Как скачать Южный Парк через торрент | qTorrent

% Раздел Тема Автор DL S | L
Мультсериалы [ 2.45 GB ] Южный парк / South Park / Сезон: 22 / Серии: 1-10 из 10 [2018 мультфильм сатира HDTVRip] VO [L0cDoG] bober100 Скачать
1 | 0
Мультсериалы [ 3.7 GB ] Южный парк / South Park / Сезон: 22 / Серии: 1-10 из 10 [2018 мультфильм сатира HDTVRip 720p] VO [L0cDoG] bober100 Скачать
2 | 0
Мультсериалы [ 2.74 GB ] Южный парк / South Park / Сезон: 22 / Серии: 1-10 из 10 [2018 мультфильм сатира HDTVRip 720p] DVO [SunshineStudio] bober100 Скачать
1 | 0


>> Регистрируемся здесь <<






Отзывы и комментарии о схеме читаем и пишем здесь: ---> Отзывы и комментарии о схеме

Новые благодарочки в телеграм довольных пользователей:
скриншот   скриншот   скриншот   скриншот   скриншот
    Дорогой пользователь! Огромная просьба, поблагодарите релизера, оцените раздачу и оставьте свои комментарий, если Вы скачали Южный Парк через торрент бесплатно! Внесите свою лепту в развитие PiratBit!
    Комментировать посты могут только пользователи прошедшие не сложную регистрацию
    Показать сообщения:    

    Южный Парк через торрент
    Скачать бесплатно Южный Парк
    Южный Парк скачать торрент
    Южный Парк смотреть онлайн
    Cкачать фильм Южный Парк бесплатно
    Южный Парк скачать торрент в хорошем качестве
    Южный Парк смотреть онлайн бесплатно в хорошем качестве


    Вы не можете начинать темы
    Вы не можете отвечать на сообщения
    Вы не можете редактировать свои сообщения
    Вы не можете удалять свои сообщения
    Вы не можете голосовать в опросах
    Вы не можете прикреплять файлы к сообщениям
    Вы можете скачивать файлы