Ребята, если до конца года каждый наш пользователь пожертвует хотя бы 10 рублей, нам хватит денег оплатить все наши расходы.

iTunes

iTunes

Миссия невыполнима: Последствия

iTunes

Поиск

4 сезон

дом

MVO

venom

iTunes

Багровая мята

iTunes

Проклятие монахини

iTunes

Человек на Луне Хит недели

ИГРА 18+

pack

RePack

Battlefield V Хит недели

RePack

Assassins Creed: Odyssey
pack

RePack

Darksiders 3

iTunes 4K

Миссия невыполнима: Последствия

RePack

fifa19

!!Акция!!

Alien_RageХит недели

RePack

NEED FOR SPEED™ PAYBACK

SATRip

9 сезон

Бесстыжие 9 сезон

Все сериалы

все сериалы на PB.wtf

iTunes

Мэнди

RePack

FAR CRY 5
  

Хижина / A Night in the Cabin / The Cabin (Йохан Боделл) [2018, Ужасы, триллер, WEB-DL 720p] MVO ["Синема УС"]

Хижина через торрент

Раздают: 3 [ 0 KB/s ]
Размер: 3.31 GB | Добавлен: 7 д. назад | Торрент скачан:28 раз
Скачать  

06-12-2018 12:09 Хижина Скачать торрент  

Хижина / A Night in the Cabin / The CabinГод выпуска: 2018
Страна: США
Жанр: Ужасы, триллер
Продолжительность: 01:29:19
Перевод: Любительский (многоголосый) | "Синема УС"
Субтитры: отсутствуют

Режиссер: Йохан Боделл

rating

В ролях:

Крис Пейдж, Кейтлин Кроммет, Эрик Каммерланд, Томас Хеденгран

Описание:

Молодая пара решает посетить хижину вдали от города, но им на пути встречается патологический лжец, которому они переходят дорогу, после чего их поездка приобретает драматический оборот.

Качество: WEB-DL 720p
Формат: MKV

Видео: h.264,4 922 kb/s, 1280x536
Аудио#1: Русский, (AC3, 2 ch, 384 Кбит/с)
скриншот  скриншот  скриншот  

Общее
Уникальный идентификатор : 208154026761988173789541564315679125540 (0x9C9901DFA138B18084EFD1401068F024)
Полное имя : D:\The.Cabin.2018.P.WEB-DL.72Op_KOSHARA.mkv
Формат : Matroska
Версия формата : Version 2
Размер файла : 3,31 Гбайт
Продолжительность : 1 ч. 29 м.
Режим общего битрейта : Переменный
Общий поток : 5308 Кбит/сек
Дата кодирования : UTC 2018-12-06 06:43:50
Программа кодирования : mkvmerge v8.3.0 ('Over the Horizon') 64bit
Библиотека кодирования : libebml v1.3.1 + libmatroska v1.4.2

Видео
Идентификатор : 1
Формат : AVC
Формат/Информация : Advanced Video Codec
Профиль формата : High@L4.1
Параметр CABAC формата : Да
Параметр RefFrames формата : 4 кадра
Идентификатор кодека : V_MPEG4/ISO/AVC
Продолжительность : 1 ч. 29 м.
Вид битрейта : Переменный
Битрейт : 4922 Кбит/сек
Максимальный битрейт : 5500 Кбит/сек
Ширина : 1280 пикселей
Высота : 536 пикселей
Соотношение сторон : 2,40:1
Режим частоты кадров : Постоянный
Частота кадров : 23,976 (24000/1001) кадра/сек
Стандарт вещания : Component
Цветовое пространство : YUV
Субдискретизация насыщенности : 4:2:0
Битовая глубина : 8 бит
Тип развёртки : Прогрессивная
Бит/(Пиксели*Кадры) : 0.293
Размер потока : 3,01 Гбайт (91%)
Default : Да
Forced : Нет
Цветовой диапазон : Limited
Основные цвета : BT.709
Характеристики трансфера : BT.709
Коэффициенты матрицы : BT.709

Аудио
Идентификатор : 2
Формат : AC-3
Формат/Информация : Audio Coding 3
Расширение режима : CM (complete main)
Параметр Endianness формата : Big
Идентификатор кодека : A_AC3
Продолжительность : 1 ч. 29 м.
Вид битрейта : Постоянный
Битрейт : 384 Кбит/сек
Каналы : 2 канала
Расположение каналов : Front: L R
Частота : 48,0 КГц
Частота кадров : 31,250 кадров/сек (1536 spf)
Метод сжатия : С потерями
Размер потока : 245 Мбайт (7%)
Default : Да
Forced : Нет




Скачать Хижина через торрент https://b.radikal.ru/b42/1812/94/af84ba8f0cee.jpg Скачать фильм Хижина через торрент бесплантно в хорошем качестве Описание: Молодая пара решает посетить хижину вдали от города, но им на пути встречается патологический лжец, которому они переходят ... 10 10 3
Торрент: Зарегистрирован [2018-12-06 12:09] · скачан: 28 раз
Статус: T временная
Размер: 3.31 GB
Как cкачать? Как скачать Хижина через торрент | qTorrent

% Раздел Тема Автор DL S | L
T Фильмы (мультфильмы) cо спонсором показа (Новинки AVI/MKV) [ 1.37 GB ] Хижина / A Night in the Cabin / The Cabin [2018 WEB-DLRip] MVO ["Синема УС"] bober100 Скачать
7 | 0


>> Регистрируемся здесь <<






Отзывы и комментарии о схеме читаем и пишем здесь: ---> Отзывы и комментарии о схеме

Новые благодарочки в телеграм довольных пользователей:
скриншот   скриншот   скриншот   скриншот   скриншот
    Дорогой пользователь! Огромная просьба, поблагодарите релизера, оцените раздачу и оставьте свои комментарий, если Вы скачали Хижина через торрент бесплатно! Внесите свою лепту в развитие PiratBit!
    Комментировать посты могут только пользователи прошедшие не сложную регистрацию
    Показать сообщения:    

    Хижина через торрент
    Скачать бесплатно Хижина
    Хижина скачать торрент
    Хижина смотреть онлайн
    Cкачать фильм Хижина бесплатно
    Хижина скачать торрент в хорошем качестве
    Хижина смотреть онлайн бесплатно в хорошем качестве


    Вы не можете начинать темы
    Вы не можете отвечать на сообщения
    Вы не можете редактировать свои сообщения
    Вы не можете удалять свои сообщения
    Вы не можете голосовать в опросах
    Вы не можете прикреплять файлы к сообщениям
    Вы можете скачивать файлы