Ребята, если до конца года каждый наш пользователь пожертвует хотя бы 10 рублей, нам хватит денег оплатить все наши расходы.

iTunes

iTunes

Миссия невыполнима: Последствия

iTunes

Поиск

4 сезон

дом

MVO

venom

iTunes

Багровая мята

iTunes

Проклятие монахини

iTunes

Человек на Луне Хит недели

ИГРА 18+

pack

RePack

Battlefield V Хит недели

RePack

Assassins Creed: Odyssey
pack

RePack

Darksiders 3

iTunes 4K

Миссия невыполнима: Последствия

RePack

fifa19

!!Акция!!

Alien_RageХит недели

RePack

NEED FOR SPEED™ PAYBACK

SATRip

9 сезон

Бесстыжие 9 сезон

Все сериалы

все сериалы на PB.wtf

iTunes

Мэнди

RePack

FAR CRY 5
  

Осечка / Dead Trigger (Майк Кафф, Скотт Виндхаузер) [2017, ужасы, боевик, WEB-DL 720p] MVO [@MUZOBOZ@]

Осечка через торрент

Размер: 3.36 GB | Добавлен: 7 д. назад | Торрент скачан:27 раз
Скачать  

06-12-2018 13:05 Осечка Скачать торрент  

Осечка / Dead TriggerГод выпуска: 2017
Страна: США
Жанр: ужасы, боевик
Продолжительность: 01:31:51
Перевод: Любительский (многоголосый) | @MUZOBOZ@
Субтитры: отсутствуют

Режиссер: Майк Кафф, Скотт Виндхаузер

rating

В ролях:

Дольф Лундгрен, Брэндон Бимер, Блеона Керети, Дерек Бун, Тамара Браун, Этан Брейнхольт, Тоби Бронсон, Лучана Карро, Джеймс Чалк, Алена Чехова

Описание:

2021 год. 5 лет назад таинственный вирус превратил людей в кровожадную нежить. В целях борьбы с вирусом был создан специальный Отдел по Борьбе с Заразой, в которой были отобраны лучшие солдаты и специалисты по борьбе с инфицированными. Из-за большой текучки кадров в подразделении отряд постоянно нуждается в новых бойцах. Для выявления лучших была создана онлайн видеоигра Dead Trigger, в которой участники получают возможность отрабатывать свои навыки в реальных боевых условиях. За успехами игроков следит руководство ОБЗ, которое принимает в отряд самых успешных истребителей зомби. Группа таких молодых новобранцев отправляется в очаг заразы, чтобы найти пропавшую команду ученых.

Качество: WEB-DL 720p
Формат: MKV

Видео: h.264, 4 852 Кбит/с, 1280x540
Аудио#1: Русский, (AC3, 2 ch, 384 Кбит/с)
скриншот  скриншот  скриншот  

Общее
Уникальный идентификатор : 251959939605232262607163505841457748098 (0xBD8DB8209527E185B00460D6FCA65882)
Полное имя : D:\Dead.Trigger.2O17.P.WEB-DL.72Op.mkv
Формат : Matroska
Версия формата : Version 2
Размер файла : 3,36 Гбайт
Продолжительность : 1 ч. 31 м.
Режим общего битрейта : Переменный
Общий поток : 5238 Кбит/сек
Дата кодирования : UTC 2018-12-06 02:52:38
Программа кодирования : mkvmerge v8.3.0 ('Over the Horizon') 64bit
Библиотека кодирования : libebml v1.3.1 + libmatroska v1.4.2

Видео
Идентификатор : 1
Формат : AVC
Формат/Информация : Advanced Video Codec
Профиль формата : High@L4.1
Параметр CABAC формата : Да
Параметр RefFrames формата : 4 кадра
Идентификатор кодека : V_MPEG4/ISO/AVC
Продолжительность : 1 ч. 31 м.
Вид битрейта : Переменный
Битрейт : 4852 Кбит/сек
Максимальный битрейт : 5500 Кбит/сек
Ширина : 1280 пикселей
Высота : 540 пикселей
Соотношение сторон : 2,40:1
Режим частоты кадров : Постоянный
Частота кадров : 23,976 (24000/1001) кадра/сек
Стандарт вещания : Component
Цветовое пространство : YUV
Субдискретизация насыщенности : 4:2:0
Битовая глубина : 8 бит
Тип развёртки : Прогрессивная
Бит/(Пиксели*Кадры) : 0.287
Размер потока : 3,05 Гбайт (91%)
Default : Да
Forced : Нет
Цветовой диапазон : Limited
Основные цвета : BT.709
Характеристики трансфера : BT.709
Коэффициенты матрицы : BT.709

Аудио
Идентификатор : 2
Формат : AC-3
Формат/Информация : Audio Coding 3
Расширение режима : CM (complete main)
Параметр Endianness формата : Big
Идентификатор кодека : A_AC3
Продолжительность : 1 ч. 31 м.
Вид битрейта : Постоянный
Битрейт : 384 Кбит/сек
Каналы : 2 канала
Расположение каналов : Front: L R
Частота : 48,0 КГц
Частота кадров : 31,250 кадров/сек (1536 spf)
Метод сжатия : С потерями
Размер потока : 252 Мбайт (7%)
Default : Да
Forced : Нет




Скачать Осечка через торрент https://d.radikal.ru/d42/1812/7d/91e5068c92e0.jpg Скачать фильм Осечка через торрент бесплантно в хорошем качестве Описание: 2021 год. 5 лет назад таинственный вирус превратил людей в кровожадную нежить. В целях борьбы с вирусом был создан специальный ... 10 10 2
Торрент: Зарегистрирован [2018-12-06 13:05] · скачан: 27 раз
Статус: T временная
Размер: 3.36 GB
Как cкачать? Как скачать Осечка через торрент | qTorrent

% Раздел Тема Автор DL S | L
T Фильмы (мультфильмы) cо спонсором показа (Новинки AVI/MKV) [ 3.59 GB ] Осечка / Dead Trigger [2017 WEB-DL 1080p] MVO [@MUZOBOZ@] bober100 Скачать
1 | 0
T Фильмы (мультфильмы) cо спонсором показа (Новинки AVI/MKV) [ 1.37 GB ] Осечка / Dead Trigger [2017 WEB-DLRip] MVO [@MUZOBOZ@] bober100 Скачать
5 | 0


>> Регистрируемся здесь <<






Отзывы и комментарии о схеме читаем и пишем здесь: ---> Отзывы и комментарии о схеме

Новые благодарочки в телеграм довольных пользователей:
скриншот   скриншот   скриншот   скриншот   скриншот
    Дорогой пользователь! Огромная просьба, поблагодарите релизера, оцените раздачу и оставьте свои комментарий, если Вы скачали Осечка через торрент бесплатно! Внесите свою лепту в развитие PiratBit!
    Комментировать посты могут только пользователи прошедшие не сложную регистрацию
    Показать сообщения:    

    Осечка через торрент
    Скачать бесплатно Осечка
    Осечка скачать торрент
    Осечка смотреть онлайн
    Cкачать фильм Осечка бесплатно
    Осечка скачать торрент в хорошем качестве
    Осечка смотреть онлайн бесплатно в хорошем качестве


    Вы не можете начинать темы
    Вы не можете отвечать на сообщения
    Вы не можете редактировать свои сообщения
    Вы не можете удалять свои сообщения
    Вы не можете голосовать в опросах
    Вы не можете прикреплять файлы к сообщениям
    Вы можете скачивать файлы